Скачать через торрент Гранд Сезон: 3 Фильм бесплатно в хорошем качестве torrent

Скачивайте на UnionPeer.org фильмы через торрент без регистрации. Новинки кино в хорошем качестве через торрент. На UnionPeer.org можно скачать через торрент фильмы 2014 и 2015 годов. Самые новые фильмы.

Скачать торрент Гранд Сезон: 3 бесплатно через .torrent фильм мультфильм сериал

Статистика раздачи
Размер:  5.09 GB   |    Зарегистрирован:  4 года   |    .torrent скачан:  25 раз   |   
Раздают:  1  
 

Скачать Гранд / Сезон: 3 / Серии: 1-8 из ?? (Дмитрий Грибанов) [2019, комедия, WEBRip 720p] через torrent

 
 
Автор Сообщение

Galfimbul

avatar Galfimbul


Гранд - 3

Год выпуска: 2019
Производство: Yellow, Black and White
Жанр: комедия
Продолжительность: ~00:25:00 серия
Субтитры: нет

Режиссёр: Дмитрий Грибанов

В ролях: Мила Сивацкая, Александр Лыков, Александра Кузенкина, Владислав Ветров, Наталья Щукина, Константин Белошапка, Александра Урсуляк, Елизавета Кононова, Александр Соколовский, Игорь Хрипунов, Николай Шрайбер, Марина Кондратьева, Дмитрий Фрид, Валерия Шкирандо, Алёна Коломина
Описание: Лев Глебович открывает новый загородный отель «Гранд» и предлагает Ксении Завгородней должность управляющей. Новое место, новый персонал и новые интриги. Бывшей горничной предстоит заслужить авторитет в коллективе и справиться с катастрофой по имени Рита — дочерью Льва Глебовича.

Реклама: Нет.

Кинопоиск
Sample

Качество: WEBRip 720p - ExKinoRay
Формат: MKV
Видео кодек: H.264
Аудио кодек: AC3
Видео: MPEG4 AVC Video, H264, 16:9, 1280x720, 25 fps, ~3400 kbps, 0.149 bit/pixel
Аудио: AC3 Dolby Digital, 48.0 kHz, 2/0 (L,R) ch, 192 kbps
Раздача ведётся путём добавления новых серий, при каждом добавлении создаётся новый торрент. Чтобы начать докачку новой серии, пользователям необходимо сделать следующее:

- Остановить скачивание.
- Удалить старый торрент у себя из клиента (старые серии удалять не надо).
- Скачать новый торрент и запустить его у себя в клиенте вместо старого, при этом указать клиенту путь в старую папку куда и должно происходить скачивание новых серий.

Ваш клиент при этом должен произвести хеширование (проверку) старой папки (если не производит сам - помогите ему сделать это), и будет докачивать только те серии которых у вас ещё нет. Старые серии при этом не удаляются, а продолжают раздаваться!
Если вы уже удалили старые серии, то предотвратить повторную закачку старых серий можно, отжав галочку в соответствующих местах при запуске нового торрента. По возможности, желательно не удалять старые серии как можно дольше, чтобы релизер не столько продолжал раздавать старые серии, а смог сконцентрироваться на новых.
General
Unique ID : 205636592878052388623603313964704717560 (0x9AB42ACCDE98F16999539178E51DDAF8)
Complete name : D:\Grand.S03.2019.WEB-DL.(720p).ExKinoRay\Grand.S03.E01-02.2019.WEB-DL.(720p).ExKinoRay.mkv
Format : Matroska
Format version : Version 4 / Version 2
File size : 1.30 GiB
Duration : 50 min 11 s
Overall bit rate : 3 698 kb/s
Encoded date : UTC 2020-01-01 09:03:28
Writing application : mkvmerge v6.9.1 (''Blue Panther'') 64bit built on Apr 18 2014 18:23:38
Writing library : libebml v1.3.0 + libmatroska v1.4.1

Video
ID : 1
Format : AVC
Format/Info : Advanced Video Codec
Format profile : [email protected]
Format settings : CABAC / 9 Ref Frames
Format settings, CABAC : Yes
Format settings, ReFrames : 9 frames
Codec ID : V_MPEG4/ISO/AVC
Duration : 50 min 11 s
Bit rate : 3 433 kb/s
Width : 1 280 pixels
Height : 720 pixels
Display aspect ratio : 16:9
Frame rate mode : Constant
Frame rate : 25.000 FPS
Color space : YUV
Chroma subsampling : 4:2:0
Bit depth : 8 bits
Scan type : Progressive
Bits/(Pixel*Frame) : 0.149
Stream size : 1.20 GiB (93%)
Default : No
Forced : No
Color range : Limited
Color primaries : BT.709
Transfer characteristics : BT.709
Matrix coefficients : BT.709

Audio
ID : 2
Format : AC-3
Format/Info : Audio Coding 3
Codec ID : A_AC3
Duration : 50 min 11 s
Bit rate mode : Constant
Bit rate : 192 kb/s
Channel(s) : 2 channels
Channel positions : Front: L R
Sampling rate : 48.0 kHz
Frame rate : 31.250 FPS (1536 SPF)
Bit depth : 16 bits
Compression mode : Lossy
Stream size : 68.9 MiB (5%)
Language : Russian
Service kind : Complete Main
Default : Yes
Forced : No


Внимание! AdBlock блокирует показ скриншотов, все вопросы к разработчикам )))
Трекер:  [ 19-Фев-2020 00:42 ]

  

Скачать .torrent

Размер .torrent файла 26 KB


Размер: 5.09 GB
Хэш (hash) релиза: 47b43670e292993f4a877f13fee471372dd8dfe9
Подписка на обновления:

Еще никто не оставлял запись к записи скачать торрент Гранд Сезон: 3 . Будь первым!

!Обратная связь