Скачать через торрент Гранд Отель Gran Hotel Фильм бесплатно в хорошем качестве torrent

Скачивайте на UnionPeer.org фильмы через торрент без регистрации. Новинки кино в хорошем качестве через торрент. На UnionPeer.org можно скачать через торрент фильмы 2014 и 2015 годов. Самые новые фильмы.

Скачать торрент Гранд Отель Gran Hotel бесплатно через .torrent фильм мультфильм сериал

Статистика раздачи
Размер:  1.68 GB   |    Зарегистрирован:  10 лет   |    .torrent скачан:  30 раз   |   
Раздают:  1  
 

Скачать Гранд Отель / Gran Hotel / Сезон: 3 / Серии: 1-2 из 8 (Карлос Седес, Сильвия Квир, Хорхе Санчес-Кабесудо) [2013, Драма, HDTVRip] MVO (DreamRecords) через torrent

 
 
Автор Сообщение

damien1990


Гранд Отель / Gran Hotel
Год выпуска: 2013
Страна: Испания
Жанр: Драма
Продолжительность: ~01:15:00
Перевод: Профессиональный (многоголосый закадровый) (DreamRecords)
Русские субтитры: нет
Режиссёр: Карлос Седес, Сильвия Квир, Хорхе Санчес-Кабесудо

В ролях: Йон Гонсалес (Хулио Ольмедо), Амайя Саламанка (Алисия Аларкон), Адриана Осорес (донья Тереса), Педро Алонсо (Диего), Элой Асорин (Хавьер Аларкон), Феле Мартинес (Альфредо Вергара), Иван Моралес (Себастьян)

Описание: Действие происходит в 1905 году. Молодой человек Хулио приезжает в идиллическое место Гранд отель, где он намерен выяснить причины исчезновение своей сестры. Но на пути его расследования встретится Алисия Аларкон, член семьи владельца отеля, и которая станет единственным человеком, готовым помочь ему раскрыть правду. Между ними начнется невозможная история любви. Им мешает то обстоятельство, что Алисия помолвлена с Диего, амбициозным юношей, который готов на всё, чтобы стать директором Гранд Отеля…
Доп. информация:Озвучено: DreamRecords
Автор перевода: Дарья Селиверстова
Монтаж и сведение звука: Алексей Фокин
Роли озвучивали:

Михаил Суслов
Владимир Чистохин
Светлана Чистохина
Мила Мирелли

Сэмпл
Качество: HDTVRip
Формат: AVI
Видео кодек: XviD
Аудио кодек: MP3
Видео: 720x400, 1 245 Kbps, 25 fps, 0.180 bit/pixel
Аудио: MP3, 48 kHz, 2 ch, 192 kbps
Format                                   : AVI
Format/Info                              : Audio Video Interleave
File size                                : 920 MiB
Duration                                 : 1h 25mn
Overall bit rate                         : 1 497 Kbps
Writing application                      : VirtualDubModRus 1.5.10.2 (build 2542/release)
Writing library                          : VirtualDubMod build 2542/release

Video
ID                                       : 0
Format                                   : MPEG-4 Visual
Format profile                           : Advanced Simple@L5
Format settings, BVOP                    : 1
Format settings, QPel                    : No
Format settings, GMC                     : No warppoints
Format settings, Matrix                  : Default (MPEG)
Codec ID                                 : XVID
Codec ID/Hint                            : XviD
Duration                                 : 1h 25mn
Bit rate                                 : 1 295 Kbps
Width                                    : 720 pixels
Height                                   : 400 pixels
Display aspect ratio                     : 16:9
Frame rate                               : 25.000 fps
Color space                              : YUV
Chroma subsampling                       : 4:2:0
Bit depth                                : 8 bits
Scan type                                : Progressive
Compression mode                         : Lossy
Bits/(Pixel*Frame)                       : 0.180
Stream size                              : 796 MiB (87%)
Writing library                          : XviD 64

Audio
ID                                       : 1
Format                                   : MPEG Audio
Format version                           : Version 1
Format profile                           : Layer 3
Mode                                     : Joint stereo
Codec ID                                 : 55
Codec ID/Hint                            : MP3
Duration                                 : 1h 25mn
Bit rate mode                            : Constant
Bit rate                                 : 192 Kbps
Channel(s)                               : 2 channels
Sampling rate                            : 48.0 KHz
Compression mode                         : Lossy
Stream size                              : 118 MiB (13%)
Alignment                                : Aligned on interleaves
Interleave, duration                     : 40 ms (1.00 video frame)
Interleave, preload duration             : 504 ms
Внимание! Раздача ведётся путём добавления новых серий; при каждом добавлении создётся новый торрент. Чтобы начать докачку новой серии, пользователям необходимо сделать следующее:
(1) остановить скачивание,
(2) удалить старый торрент у себя из клиента (старые серии удалять не надо),
(3) скачать новый торрент и запустить его у себя в клиенте вместо старого, при этом указать клиенту путь в старую папку куда и должно происходить скачивание новых серий.
Ваш клиент при этом должен произвести хеширование (проверку) старой папки (если не производит сам - помогите ему сделать это), и будет докачивать только те серии которых у вас ещё нет. Старые серии при этом не удаляются, а продолжают раздаваться!
Eсли вы уже удалили старые серии, то предотвратить повторную закачку старых серий можно, отжав галочку в соответсвующих местах при запуске нового торрента. По возможности, желательно не удалять старые серии как можно дольше чтобы релизёр не столько продолжал раздавать старые серии, а смог сконцентрироваться на новых.


Внимание! AdBlock блокирует показ скриншотов, все вопросы к разработчикам )))
Трекер:  [ 19-Мар-2013 21:37 ]

  

Скачать .torrent

Размер .torrent файла 17 KB


Размер: 1.68 GB
Хэш (hash) релиза: fe2ad886209139615fea84600bd985cc4248d475
Подписка на обновления:

Еще никто не оставлял запись к записи скачать торрент Гранд Отель Gran Hotel . Будь первым!

!Обратная связь