The Exception torrent

3.64 GB   |    :  5 10    |    .torrent :  26    |   
1  
   
 

Galfimbul

avatar Galfimbul


/ The Exception
One duty. One desire. One decision

6.606 / 10 6.80 / 10
: 2016
:
: , ,
: 01:47:31

: (iTunes)
:
C:
:
: ,
: , ,
:
:
: , ,
:
: Loïs van Wijk, , , , , Aubeline Barbieux, , , ,

: $708 973

: 12 2016

: 40- . - II. , , .
: BDRemux (NNMClub)
: BDRip
: HD (720p)
: M4V
: H.264, 1280x544, 2.35:1, 3 500 Kbps, 23.976 (24000/1001) fps

1: / (iTunes), AAC / 2.0 / 160 Kbps / 48.0 KHz
2: / , AAC / 2.0 / 160 Kbps / 48.0 KHz
3: / (iTunes), AC-3 / 5.1 / 384 Kbps / 48.0 KHz
4: / , AC-3 / 5.1 / 640 Kbps / 48.0 KHz

:
Sort Name: Exception
XID: Apple:vendor_id:2016-921941
contentID: 1224792262
Copyright: 2016 Egoli Tossell Film
Screenwriters: ,
Producers: , ,
Director:
Cast: Loïs van Wijk, , , , , Aubeline Barbieux, , , ,
Studio: A24
Rating Annotation: Rated R for some sexuality, graphic nudity, language and brief violence.
Rating: 5
Long Description: 40- . - II. , , .
Description: 40- . - II. , , .
Release Date: 2016-01-01T08:00:00Z
Genre: Thriller
Artist: David Leveaux
Name: The Exception
General
Complete name : /Users/imac/HandBrake/The Exception (720p HD).m4v
Format : MPEG-4
Codec ID : M4V (M4V /M4A /mp42/isom)
File size : 3.64 GiB
Duration : 1h 47mn
Overall bit rate mode : Variable
Overall bit rate : 4 843 Kbps
Movie name : The Exception
Performer : David Leveaux
Director :
Actor : Loïs van Wijk / / / / / Aubeline Barbieux / / / /
Screenplay by : /
Producer : / /
Production studio : A24
Genre : Thriller
ContentType : Short Film
Description : 40- . - II. , , .
Recorded date : UTC 2016-01-01 08:00:00
Encoded date : UTC 2018-07-02 10:16:21
Tagged date : UTC 2018-07-02 10:17:15
Copyright : 2016 Egoli Tossell Film
Cover : Yes
Rating : None
Title/Sort : Exception
LongDescription : 40- . - II. , , .
HDVideo : Yes
AppleStoreCatalogID : 1224792262
Vendor : Apple:vendor_id:2016-921941
ContentRating : mpaa|R|400|Rated R for some sexuality, graphic nudity, language and brief violence.

Video #1
ID : 1
Format : AVC
Format/Info : Advanced Video Codec
Format profile : [email protected]
Format settings : 3 Ref Frames
Format settings, CABAC : No
Format settings, ReFrames : 3 frames
Codec ID : avc1
Codec ID/Info : Advanced Video Coding
Duration : 1h 47mn
Source duration : 1h 47mn
Bit rate : 3 500 Kbps
Width : 1 280 pixels
Height : 544 pixels
Display aspect ratio : 2.35:1
Frame rate mode : Variable
Frame rate : 23.976 (24000/1001) fps
Minimum frame rate : 23.974 fps
Maximum frame rate : 23.981 fps
Color space : YUV
Chroma subsampling : 4:2:0
Bit depth : 8 bits
Scan type : Progressive
Bits/(Pixel*Frame) : 0.210
Stream size : 2.62 GiB (72%)
Source stream size : 2.62 GiB (72%)
Title : Main Program
Writing library : x264 core 155 r2901 7d0ff22
Encoding settings : cabac=0 / ref=3 / deblock=1:-3:-3 / analyse=0x3:0x113 / me=umh / subme=9 / psy=1 / psy_rd=1.00:0.15 / mixed_ref=1 / me_range=32 / chroma_me=1 / trellis=0 / 8x8dct=1 / cqm=0 / deadzone=21,11 / fast_pskip=0 / chroma_qp_offset=-2 / threads=17 / lookahead_threads=1 / sliced_threads=0 / nr=0 / decimate=0 / interlaced=0 / bluray_compat=0 / constrained_intra=0 / bframes=3 / b_pyramid=0 / b_adapt=2 / b_bias=0 / direct=1 / weightb=0 / open_gop=0 / weightp=0 / keyint=240 / keyint_min=24 / scenecut=40 / intra_refresh=0 / rc_lookahead=40 / rc=2pass / mbtree=1 / bitrate=3500 / ratetol=1.0 / qcomp=0.65 / qpmin=0 / qpmax=69 / qpstep=4 / cplxblur=20.0 / qblur=0.5 / vbv_maxrate=9500 / vbv_bufsize=9500 / nal_hrd=none / filler=0 / ip_ratio=1.40 / aq=1:1.10
Language : English
Encoded date : UTC 2018-07-02 10:16:21
Tagged date : UTC 2018-07-02 10:16:29
Color range : Limited
Color primaries : BT.709
Transfer characteristics : BT.709
Matrix coefficients : BT.709
Menus : 7,8

Video #2
ID : 8
Format : JPEG
Codec ID : jpeg
Duration : 1h 47mn
Bit rate mode : Variable
Bit rate : 529 bps
Width : 640 pixels
Height : 272 pixels
Display aspect ratio : 2.35:1
Frame rate mode : Variable
Frame rate : 0.002 fps
Minimum frame rate : 0.002 fps
Maximum frame rate : 0.004 fps
Color space : YUV
Chroma subsampling : 4:2:0
Bit depth : 8 bits
Compression mode : Lossy
Bits/(Pixel*Frame) : 1.519
Stream size : 517 KiB (0%)
Title : Chapter Images
Language : English
Default : No
Encoded date : UTC 2018-07-02 10:16:37
Tagged date : UTC 2018-07-02 10:16:37
Menu For : 1
ColorSpace_ICC : RGB

Audio #1
ID : 2
Format : AAC
Format/Info : Advanced Audio Codec
Format profile : LC
Codec ID : mp4a-40-2
Duration : 1h 47mn
Source duration : 1h 47mn
Bit rate mode : Variable
Bit rate : 156 Kbps
Maximum bit rate : 233 Kbps
Channel(s) : 2 channels
Channel positions : Front: L R
Sampling rate : 48.0 KHz
Frame rate : 46.875 fps (1024 SPF)
Compression mode : Lossy
Stream size : 120 MiB (3%)
Source stream size : 120 MiB (3%)
Title : Russian Stereo
Language : Russian
Default : Yes
Alternate group : 1
Encoded date : UTC 2018-07-02 10:16:21
Tagged date : UTC 2018-07-02 10:16:33
Fallback From : 4

Audio #2
ID : 3
Format : AAC
Format/Info : Advanced Audio Codec
Format profile : LC
Codec ID : mp4a-40-2
Duration : 1h 47mn
Source duration : 1h 47mn
Bit rate mode : Variable
Bit rate : 158 Kbps
Maximum bit rate : 255 Kbps
Channel(s) : 2 channels
Channel positions : Front: L R
Sampling rate : 48.0 KHz
Frame rate : 46.875 fps (1024 SPF)
Compression mode : Lossy
Stream size : 121 MiB (3%)
Source stream size : 121 MiB (3%)
Title : English Stereo
Language : English
Default : No
Alternate group : 1
Encoded date : UTC 2018-07-02 10:16:21
Tagged date : UTC 2018-07-02 10:16:33
Fallback From : 5

Audio #3
ID : 4
Format : AC-3
Format/Info : Audio Coding 3
Codec ID : ac-3
Duration : 1h 47mn
Bit rate mode : Constant
Bit rate : 384 Kbps
Channel(s) : 6 channels
Channel positions : Front: L C R, Side: L R, LFE
Sampling rate : 48.0 KHz
Frame rate : 31.250 fps (1536 SPF)
Bit depth : 16 bits
Compression mode : Lossy
Stream size : 295 MiB (8%)
Title : Russian DD 5.1
Language : Russian
Service kind : Complete Main
Default : Inherited From: 2
Alternate group : 1
Encoded date : UTC 2018-07-02 10:16:21
Tagged date : UTC 2018-07-02 10:16:33
Fallback To : 2

Audio #4
ID : 5
Format : AC-3
Format/Info : Audio Coding 3
Codec ID : ac-3
Duration : 1h 47mn
Bit rate mode : Constant
Bit rate : 640 Kbps
Channel(s) : 6 channels
Channel positions : Front: L C R, Side: L R, LFE
Sampling rate : 48.0 KHz
Frame rate : 31.250 fps (1536 SPF)
Bit depth : 16 bits
Compression mode : Lossy
Stream size : 492 MiB (13%)
Title : English DD 5.1
Language : English
Service kind : Complete Main
Default : No
Alternate group : 1
Encoded date : UTC 2018-07-02 10:16:21
Tagged date : UTC 2018-07-02 10:16:33
Fallback To : 3

Text
ID : 6
Format : Timed Text
Muxing mode : sbtl
Codec ID : tx3g
Duration : 1h 41mn
Bit rate mode : Variable
Bit rate : 58 bps
Stream size : 42.6 KiB (0%)
Title : English full
Language : English
Default : Yes
Forced : No
Alternate group : 2
Encoded date : UTC 2018-07-02 10:16:21
Tagged date : UTC 2018-07-02 10:16:32

Menu #1
00:00:00.000 : Chapter 1
00:04:47.204 : Chapter 2
00:11:47.624 : Chapter 3
00:21:39.340 : Chapter 4
00:26:35.511 : Chapter 5
00:32:16.101 : Chapter 6
00:41:20.520 : Chapter 7
00:46:15.690 : Chapter 8
00:52:41.825 : Chapter 9
00:58:56.533 : Chapter 10
01:03:22.424 : Chapter 11
01:11:15.772 : Chapter 12
01:17:01.492 : Chapter 13
01:24:06.083 : Chapter 14
01:31:06.044 : Chapter 15
01:38:11.344 : Chapter 16

Menu #2
ID : 7
Codec ID : text
Duration : 1h 47mn
Language : English
Encoded date : UTC 2018-07-02 10:16:33
Tagged date : UTC 2018-07-02 10:16:33
Menu For : 1
00:00:00.000 : Chapter 1
00:04:47.204 : Chapter 2
00:11:47.624 : Chapter 3
00:21:39.340 : Chapter 4
00:26:35.511 : Chapter 5
00:32:16.101 : Chapter 6
00:41:20.520 : Chapter 7
00:46:15.690 : Chapter 8
00:52:41.825 : Chapter 9
00:58:56.533 : Chapter 10
01:03:22.424 : Chapter 11
01:11:15.772 : Chapter 12
01:17:01.492 : Chapter 13
01:24:06.083 : Chapter 14
01:31:06.044 : Chapter 15
01:38:11.344 : Chapter 16
Bit rate mode : VBR
x264 [info]: frame I:1280 Avg QP:10.66 size:112057
x264 [info]: frame P:50705 Avg QP:13.18 size: 36699
x264 [info]: frame B:102672 Avg QP:14.48 size: 7931
x264 [info]: consecutive B-frames: 2.3% 16.5% 33.3% 47.9%
x264 [info]: mb I I16..4: 10.9% 64.8% 24.3%
x264 [info]: mb P I16..4: 2.0% 5.4% 1.4% P16..4: 39.4% 30.9% 13.9% 0.0% 0.0% skip: 7.1%
x264 [info]: mb B I16..4: 0.2% 0.4% 0.1% B16..8: 41.2% 14.7% 2.3% direct: 4.1% skip:37.0% L0:41.3% L1:50.3% BI: 8.4%
x264 [info]: 8x8 transform intra:61.5% inter:38.1%
x264 [info]: coded y,uvDC,uvAC intra: 77.7% 82.2% 72.5% inter: 25.4% 22.1% 15.9%
x264 [info]: i16 v,h,dc,p: 64% 9% 8% 19%
x264 [info]: i8 v,h,dc,ddl,ddr,vr,hd,vl,hu: 11% 8% 16% 10% 12% 12% 11% 11% 10%
x264 [info]: i4 v,h,dc,ddl,ddr,vr,hd,vl,hu: 10% 8% 7% 12% 16% 15% 13% 11% 9%
x264 [info]: i8c dc,h,v,p: 60% 14% 18% 8%
x264 [info]: ref P L0: 70.9% 17.2% 11.9%
x264 [info]: ref B L0: 77.9% 22.1%
x264 [info]: kb/s:3495.65


Apple TV, iPad, iPhone, iPod Touch.
Windows VLC media player

! AdBlock , )))

 ·  , , FAQ-
:  [ 02--2018 13:36 ]

  

.torrent

.torrent 37 KB


: 3.64 GB
(hash) : 536b0257608febc5d4c7768cabd4bfe2eb902b38
··
...

The Exception . !

!