[ATV3] The Exception torrent

7.02 GB   |    :  5 10    |    .torrent :  36    |   
1  
   
 

Galfimbul

avatar Galfimbul


/ The Exception
One duty. One desire. One decision

6.606 / 10 6.80 / 10
: 2016
:
: , ,
: 01:47:31

: (iTunes)
:
C:
:
: ,
: , ,
:
:
: , ,
:
: Loïs van Wijk, , , , , Aubeline Barbieux, , , ,

: $708 973

: 12 2016

: 40- . - II. , , .
: BDRemux (NNMClub)
: BDRip
: HD (1080p)
: M4V
: H.264, 1920x800, 2.40:1, 8 000 Kbps, 23.976 (24000/1001) fps

1: / (iTunes), AAC / 2.0 / 160 Kbps / 48.0 KHz
2: / , AAC / 2.0 / 160 Kbps / 48.0 KHz
3: / (iTunes), AC-3 / 5.1 / 384 Kbps / 48.0 KHz
4: / , AC-3 / 5.1 / 640 Kbps / 48.0 KHz

:
Sort Name: Exception
XID: Apple:vendor_id:2016-921941
contentID: 1224792262
Copyright: 2016 Egoli Tossell Film
Screenwriters: ,
Producers: , ,
Director:
Cast: Loïs van Wijk, , , , , Aubeline Barbieux, , , ,
Studio: A24
Rating Annotation: Rated R for some sexuality, graphic nudity, language and brief violence.
Rating: 5
Long Description: 40- . - II. , , .
Description: 40- . - II. , , .
Release Date: 2016-01-01T08:00:00Z
Genre: Thriller
Artist: David Leveaux
Name: The Exception
General
Complete name : /Users/imac/HandBrake/The Exception (1080p HD).m4v
Format : MPEG-4
Codec ID : M4V (M4V /M4A /mp42/isom)
File size : 7.02 GiB
Duration : 1h 47mn
Overall bit rate mode : Variable
Overall bit rate : 9 344 Kbps
Movie name : The Exception
Performer : David Leveaux
Director :
Actor : Loïs van Wijk / / / / / Aubeline Barbieux / / / /
Screenplay by : /
Producer : / /
Production studio : A24
Genre : Thriller
ContentType : Short Film
Description : 40- . - II. , , .
Recorded date : UTC 2016-01-01 08:00:00
Encoded date : UTC 2018-07-02 09:46:40
Tagged date : UTC 2018-07-02 09:50:15
Copyright : 2016 Egoli Tossell Film
Cover : Yes
Rating : None
Title/Sort : Exception
LongDescription : 40- . - II. , , .
AppleStoreCatalogID : 1224792262
Vendor : Apple:vendor_id:2016-921941
ContentRating : mpaa|R|400|Rated R for some sexuality, graphic nudity, language and brief violence.

Video #1
ID : 1
Format : AVC
Format/Info : Advanced Video Codec
Format profile : High@L4
Format settings : CABAC / 4 Ref Frames
Format settings, CABAC : Yes
Format settings, ReFrames : 4 frames
Codec ID : avc1
Codec ID/Info : Advanced Video Coding
Duration : 1h 47mn
Source duration : 1h 47mn
Bit rate : 8 000 Kbps
Width : 1 920 pixels
Height : 800 pixels
Display aspect ratio : 2.40:1
Frame rate mode : Variable
Frame rate : 23.976 (24000/1001) fps
Minimum frame rate : 23.974 fps
Maximum frame rate : 23.981 fps
Color space : YUV
Chroma subsampling : 4:2:0
Bit depth : 8 bits
Scan type : Progressive
Bits/(Pixel*Frame) : 0.217
Stream size : 6.01 GiB (86%)
Source stream size : 6.01 GiB (86%)
Title : Main Program
Writing library : x264 core 155 r2901 7d0ff22
Encoding settings : cabac=1 / ref=4 / deblock=1:-2:-2 / analyse=0x3:0x133 / me=umh / subme=10 / psy=1 / psy_rd=1.00:0.15 / mixed_ref=1 / me_range=32 / chroma_me=1 / trellis=2 / 8x8dct=1 / cqm=0 / deadzone=21,11 / fast_pskip=1 / chroma_qp_offset=-3 / threads=25 / lookahead_threads=6 / sliced_threads=0 / nr=0 / decimate=0 / interlaced=0 / bluray_compat=0 / constrained_intra=0 / bframes=16 / b_pyramid=2 / b_adapt=2 / b_bias=0 / direct=3 / weightb=1 / open_gop=0 / weightp=2 / keyint=240 / keyint_min=24 / scenecut=40 / intra_refresh=0 / rc_lookahead=40 / rc=2pass / mbtree=1 / bitrate=8000 / ratetol=1.0 / qcomp=0.70 / qpmin=0 / qpmax=69 / qpstep=4 / cplxblur=20.0 / qblur=0.5 / ip_ratio=1.40 / aq=1:1.00
Language : English
Encoded date : UTC 2018-07-02 09:46:41
Tagged date : UTC 2018-07-02 09:46:59
Color range : Limited
Color primaries : BT.709
Transfer characteristics : BT.709
Matrix coefficients : BT.709
Menus : 7,8

Video #2
ID : 8
Format : JPEG
Codec ID : jpeg
Duration : 1h 47mn
Bit rate mode : Variable
Bit rate : 519 bps
Width : 640 pixels
Height : 266 pixels
Display aspect ratio : 2.40:1
Frame rate mode : Variable
Frame rate : 0.002 fps
Minimum frame rate : 0.002 fps
Maximum frame rate : 0.004 fps
Color space : YUV
Chroma subsampling : 4:2:0
Bit depth : 8 bits
Compression mode : Lossy
Bits/(Pixel*Frame) : 1.524
Stream size : 507 KiB (0%)
Title : Chapter Images
Language : English
Default : No
Encoded date : UTC 2018-07-02 09:47:11
Tagged date : UTC 2018-07-02 09:47:11
Menu For : 1
ColorSpace_ICC : RGB

Audio #1
ID : 2
Format : AAC
Format/Info : Advanced Audio Codec
Format profile : LC
Codec ID : mp4a-40-2
Duration : 1h 47mn
Source duration : 1h 47mn
Bit rate mode : Variable
Bit rate : 156 Kbps
Maximum bit rate : 233 Kbps
Channel(s) : 2 channels
Channel positions : Front: L R
Sampling rate : 48.0 KHz
Frame rate : 46.875 fps (1024 SPF)
Compression mode : Lossy
Stream size : 120 MiB (2%)
Source stream size : 120 MiB (2%)
Title : Russian Stereo
Language : Russian
Default : Yes
Alternate group : 1
Encoded date : UTC 2018-07-02 09:46:41
Tagged date : UTC 2018-07-02 09:47:04
Fallback From : 4

Audio #2
ID : 3
Format : AAC
Format/Info : Advanced Audio Codec
Format profile : LC
Codec ID : mp4a-40-2
Duration : 1h 47mn
Source duration : 1h 47mn
Bit rate mode : Variable
Bit rate : 158 Kbps
Maximum bit rate : 255 Kbps
Channel(s) : 2 channels
Channel positions : Front: L R
Sampling rate : 48.0 KHz
Frame rate : 46.875 fps (1024 SPF)
Compression mode : Lossy
Stream size : 121 MiB (2%)
Source stream size : 121 MiB (2%)
Title : English Stereo
Language : English
Default : No
Alternate group : 1
Encoded date : UTC 2018-07-02 09:46:41
Tagged date : UTC 2018-07-02 09:47:04
Fallback From : 5

Audio #3
ID : 4
Format : AC-3
Format/Info : Audio Coding 3
Codec ID : ac-3
Duration : 1h 47mn
Bit rate mode : Constant
Bit rate : 384 Kbps
Channel(s) : 6 channels
Channel positions : Front: L C R, Side: L R, LFE
Sampling rate : 48.0 KHz
Frame rate : 31.250 fps (1536 SPF)
Bit depth : 16 bits
Compression mode : Lossy
Stream size : 295 MiB (4%)
Title : Russian DD 5.1
Language : Russian
Service kind : Complete Main
Default : Inherited From: 2
Alternate group : 1
Encoded date : UTC 2018-07-02 09:46:41
Tagged date : UTC 2018-07-02 09:46:51
Fallback To : 2

Audio #4
ID : 5
Format : AC-3
Format/Info : Audio Coding 3
Codec ID : ac-3
Duration : 1h 47mn
Bit rate mode : Constant
Bit rate : 640 Kbps
Channel(s) : 6 channels
Channel positions : Front: L C R, Side: L R, LFE
Sampling rate : 48.0 KHz
Frame rate : 31.250 fps (1536 SPF)
Bit depth : 16 bits
Compression mode : Lossy
Stream size : 492 MiB (7%)
Title : English DD 5.1
Language : English
Service kind : Complete Main
Default : No
Alternate group : 1
Encoded date : UTC 2018-07-02 09:46:41
Tagged date : UTC 2018-07-02 09:46:51
Fallback To : 3

Text
ID : 6
Format : Timed Text
Muxing mode : sbtl
Codec ID : tx3g
Duration : 1h 41mn
Bit rate mode : Variable
Bit rate : 58 bps
Stream size : 42.6 KiB (0%)
Title : English full
Language : English
Default : Yes
Forced : No
Alternate group : 2
Encoded date : UTC 2018-07-02 09:46:41
Tagged date : UTC 2018-07-02 09:46:41

Menu #1
00:00:00.000 : Chapter 1
00:04:47.204 : Chapter 2
00:11:47.624 : Chapter 3
00:21:39.340 : Chapter 4
00:26:35.511 : Chapter 5
00:32:16.101 : Chapter 6
00:41:20.520 : Chapter 7
00:46:15.690 : Chapter 8
00:52:41.825 : Chapter 9
00:58:56.533 : Chapter 10
01:03:22.424 : Chapter 11
01:11:15.772 : Chapter 12
01:17:01.492 : Chapter 13
01:24:06.083 : Chapter 14
01:31:06.044 : Chapter 15
01:38:11.344 : Chapter 16

Menu #2
ID : 7
Codec ID : text
Duration : 1h 47mn
Language : English
Encoded date : UTC 2018-07-02 09:47:04
Tagged date : UTC 2018-07-02 09:47:04
Menu For : 1
00:00:00.000 : Chapter 1
00:04:47.204 : Chapter 2
00:11:47.624 : Chapter 3
00:21:39.340 : Chapter 4
00:26:35.511 : Chapter 5
00:32:16.101 : Chapter 6
00:41:20.520 : Chapter 7
00:46:15.690 : Chapter 8
00:52:41.825 : Chapter 9
00:58:56.533 : Chapter 10
01:03:22.424 : Chapter 11
01:11:15.772 : Chapter 12
01:17:01.492 : Chapter 13
01:24:06.083 : Chapter 14
01:31:06.044 : Chapter 15
01:38:11.344 : Chapter 16
Bit rate mode : VBR
x264 [info]: frame I:963 Avg QP:11.86 size:200734
x264 [info]: frame P:33116 Avg QP:14.56 size: 79549
x264 [info]: frame B:120578 Avg QP:15.30 size: 30027
x264 [info]: consecutive B-frames: 1.5% 2.0% 10.1% 18.7% 24.3% 30.5% 7.3% 1.3% 1.1% 0.5% 0.3% 0.1% 0.2% 0.2% 0.3% 0.4% 1.1%
x264 [info]: mb I I16..4: 18.0% 68.4% 13.6%
x264 [info]: mb P I16..4: 3.1% 19.3% 1.5% P16..4: 31.5% 22.2% 13.5% 0.8% 0.4% skip: 7.6%
x264 [info]: mb B I16..4: 0.5% 2.1% 0.1% B16..8: 34.3% 13.9% 3.7% direct:11.2% skip:34.3% L0:43.0% L1:39.3% BI:17.7%
x264 [info]: 8x8 transform intra:79.0% inter:37.9%
x264 [info]: direct mvs spatial:99.1% temporal:0.9%
x264 [info]: coded y,uvDC,uvAC intra: 83.5% 85.0% 73.7% inter: 31.3% 31.2% 13.6%
x264 [info]: i16 v,h,dc,p: 49% 8% 16% 27%
x264 [info]: i8 v,h,dc,ddl,ddr,vr,hd,vl,hu: 12% 9% 25% 8% 9% 9% 8% 9% 10%
x264 [info]: i4 v,h,dc,ddl,ddr,vr,hd,vl,hu: 12% 9% 11% 10% 13% 12% 11% 10% 11%
x264 [info]: i8c dc,h,v,p: 57% 18% 17% 8%
x264 [info]: Weighted P-Frames: Y:2.0% UV:0.6%
x264 [info]: ref P L0: 53.6% 7.4% 28.0% 10.8% 0.2% 0.0%
x264 [info]: ref B L0: 84.0% 13.3% 2.7%
x264 [info]: ref B L1: 95.0% 5.0%
x264 [info]: kb/s:7997.16


Apple TV, iPad, iPhone, iPod Touch.
Windows VLC media player

! AdBlock , )))

 ·  , , FAQ-
:  [ 02--2018 13:06 ]

  

.torrent

.torrent 70 KB


: 7.02 GB
(hash) : f48b964d437f9a5e7e8fec017eb53ccc5b2af1d9
··
...

[ATV3] The Exception . !

!