Скачать через торрент Подкидыш Фильм бесплатно в хорошем качестве torrent

Скачивайте на UnionPeer.org фильмы через торрент без регистрации. Новинки кино в хорошем качестве через торрент. На UnionPeer.org можно скачать через торрент фильмы 2014 и 2015 годов. Самые новые фильмы.

Скачать торрент Подкидыш бесплатно через .torrent фильм мультфильм сериал

Статистика раздачи
Размер:  1.01 GB   |    Зарегистрирован:  9 лет   |    .torrent скачан:  36 раз   |   
Раздают:  1  
 

Скачать Подкидыш (Татьяна Лукашевич) [1939, комедия, TVRip] (Полная оригинальная версия) через torrent

 
 
Автор Сообщение

Galfimbul

avatar Galfimbul


Подкидыш

Жанр: комедия
Год выпуска: 1939
Страна: СССР
Студия: Мосфильм
Продолжительность: 01:08:42.720 (103068 frames)

Режиссёр: Татьяна Лукашевич

В ролях: Вероника Лебедева, Фаина Раневская, Петр Репнин, Ростислав Плятт, Рина Зелёная, Ольга Жизнева, Виктор Громов, Татьяна Барышева, Эля Быковская, Дима Глухов, Витя Бойко, Андрей Старостин, Станислав Леута, Николай Арский (Андреев), Иван Лобызовский, Николай Юдин, Фёдор Одиноков, Лёва Аннинский, Лев Иванов

Описание: Мама поехала снимать дачу на лето, оставив маленькую Наташу под присмотром старшего брата Юры. Юра строго приказал Наташе спать до двух часов. Тут раздался звонок в дверь, и к брату пришли в гости мальчик и девочка. Они настолько увлеклись обсуждением своих пионерских поручений, что не заметили, как Наташа, немного поплакав, оделась, ушла из квартиры на улицу - и потерялась в большом городе, потому что номер квартиры и "звонить два раза" она уже выучила, а вот название улицы и номер дома, где живет, - еще нет...

Дополнительная информация:

Релиз:

Автор рипа: pmv

Запись со спутника выполнена Saulius Kintera / Luxembourg /, который предоставил исходник, за что приносим ему Благодарность!

В раздаче представлена полная оригинальная версия фильма 1939 года.
Качество возможно не лучшее, но уникальность представленной версии для любителей кино несомненна.
Всё, что было вырезано и заретушировано, в этой версии сохранилось в девственном виде.

Семпл: http://multi-up.com/955798

Качество видео: TVRip
Формат видео: AVI

Видео: 720x552 (1.30:1), 25 fps, XviD build 50 ~1999 kbps avg, 0.20 bit/pixel
Аудио: 48 kHz, MPEG Layer 3, 1 ch, ~96.00 kbps avg
General
Complete name : D:\torrents\Подкидыш (1939, ориг).avi
Format : AVI
Format/Info : Audio Video Interleave
File size : 1.01 GiB
Duration : 1h 8mn
Overall bit rate : 2 105 Kbps
Writing library : VirtualDub build 35491/release

Video
ID : 0
Format : MPEG-4 Visual
Format profile : Advanced Simple@L5
Format settings, BVOP : Yes
Format settings, QPel : No
Format settings, GMC : No warppoints
Format settings, Matrix : Default (H.263)
Codec ID : XVID
Codec ID/Hint : XviD
Duration : 1h 8mn
Bit rate : 2 000 Kbps
Width : 720 pixels
Height : 552 pixels
Display aspect ratio : 4:3
Frame rate : 25.000 fps
Resolution : 8 bits
Colorimetry : 4:2:0
Scan type : Progressive
Bits/(Pixel*Frame) : 0.201
Stream size : 983 MiB (95%)
Writing library : XviD 1.2.1 (UTC 2008-12-04)

Audio
ID : 1
Format : MPEG Audio
Format version : Version 1
Format profile : Layer 3
Codec ID : 55
Codec ID/Hint : MP3
Duration : 1h 8mn
Bit rate mode : Constant
Bit rate : 96.0 Kbps
Channel(s) : 1 channel
Sampling rate : 48.0 KHz
Video delay : 6ms
Stream size : 47.2 MiB (5%)
Alignment : Split accross interleaves
Interleave, duration : 40 ms (1.00 video frame)
Interleave, preload duration : 500 ms


Внимание! AdBlock блокирует показ скриншотов, все вопросы к разработчикам )))
Трекер:  [ 02-Мар-2014 18:00 ]

  

Скачать .torrent

Размер .torrent файла 10 KB


Размер: 1.01 GB
Хэш (hash) релиза: 378cc0a0a77f0961b8ed17e5c697c4e5c17489a3
Подписка на обновления:

Торренты, похожие на Подкидыш скачать торрент

Форум Название Автор Размер S L Добавлен
Российские фильмы 2016-2020 (Новинки русского кино) ·· Подкидыш (2019) WEB-DLRip от GeneralFilm Galfimbul 781950976746 MB 0 0 1591689009

10:50

9-Июн-20

Зарубежные фильмы до 2016 ·· Жюстиньен Подкидыш, или внебрачный ребенок Бога / Justinien Trouvé, ou le bâtard de Dieu (Кристиан Фешнер / Christian Fechner) [1993, Франция, драма, DVD9 (Custom)] R2, VO (А.Дасевич) + Sub (Rus (enoeno, Lisok), Eng) + Original Fre Galfimbul 78218874887.28 GB 0 0 1514648185

18:36

30-Дек-17

Российские сериалы ·· Подкидыши / Окно жизни / Сезон: 2 / Серии: 1-24 из 24 (Максим Паперник, Владимир Мельниченко) [2017, драма, мелодрама, WEBRip] Galfimbul 1385286656012.9 GB 0 0 1506774559

15:29

30-Сен-17

Российские фильмы до 2016 ·· Подкидыш (Татьяна Лукашевич) [1939, СССР, комедия, 2хDVD5] цветной + чёрно-белый Galfimbul 78917816327.35 GB 0 0 1356163620

11:07

22-Дек-12

Российские фильмы до 2016 ·· Подкидыш (Татьяна Лукашевич) [1939, комедия, семейный, DVDRip] цветная версия Galfimbul 14416240641.34 GB 0 0 1356014340

17:39

20-Дек-12

Российские фильмы до 2016 ·· Подкидыш (Татьяна Лукашевич) [1939 г., Комедия, DVDRip] Цветная версия Galfimbul 11639726081.08 GB 0 0 1320608802

22:46

6-Ноя-11

Российские фильмы до 2016 ·· Подкидыш (Татьяна Лукашевич) [1939 г., Комедия, DVDRip] Цветная версия Galfimbul 777029632741 MB 0 0 1320419670

18:14

4-Ноя-11

Еще никто не оставлял запись к записи скачать торрент Подкидыш . Будь первым!

!Обратная связь