Скачать через торрент Место крушения Место катастрофы: семья в опасности Фильм бесплатно в хорошем качестве torrent

Скачивайте на UnionPeer.org фильмы через торрент без регистрации. Новинки кино в хорошем качестве через торрент. На UnionPeer.org можно скачать через торрент фильмы 2014 и 2015 годов. Самые новые фильмы.

Скачать торрент Место крушения Место катастрофы: семья в опасности бесплатно через .torrent фильм мультфильм сериал

Статистика раздачи
Размер:  1.46 GB   |    Зарегистрирован:  10 лет   |    .torrent скачан:  40 раз   |   
Раздают:  1  
   
 
Автор Сообщение

Galfimbul

avatar Galfimbul


Место крушения / Место катастрофы: семья в опасностиCrash Site / Crash Site: A Family In Danger
Страна: США, Канада
Жанр: Драма, триллер
Год выпуска: 2011
Продолжительность: 01:30:13
Перевод: Профессиональный (многоголосый закадровый)
Cубтитры: нет
Режиссер: Джейсон Бурк / Jason Bourque
В ролях: Харизма Карпентер, Себастьян Спенс, Кэти Файндлей, Стивен Грэйм, Кит МакКекни, Мэтти Финочио, Кеван Охтци, Дерек Андерсон, Фрэнк Ч. Тёрнер, Кэйден Кесслер
Описание: Американское семейство отправляется на пикник в малоисхоженный лес. В дороге они попадают в аварию. Оставшись без машины, их единственный шанс добраться до цивилизации — идти пешком через лес.
Sample | IMDB | КиноПоиск
Тип релиза: HDRip [исх. BDRip 720p]
Формат видео: AVI
Видео: 704x400 (1.76:1), 23.976 fps, XviD build 50, 2182 kbps avg, 0.32 bit/pixel
Аудио: 48 kHz, MPEG Layer 3, 2 ch, 128.00 kbps avg [Russian_MVO]
Релиз группы:
General
Complete name : E:\Мои раздачи\Crash Site_HDRip_RG_All_Films.avi
Format : AVI
Format/Info : Audio Video Interleave
File size : 1.46 GiB
Duration : 1h 30mn
Overall bit rate : 2 320 Kbps
Writing application : VirtualDubMod 1.5.10.3
Writing library : VirtualDubMod build 2550/release

Video
ID : 0
Format : MPEG-4 Visual
Format profile : Advanced Simple@L5
Format settings, BVOP : Yes
Format settings, QPel : No
Format settings, GMC : No warppoints
Format settings, Matrix : Custom
Codec ID : XVID
Codec ID/Hint : XviD
Duration : 1h 30mn
Bit rate : 2 183 Kbps
Width : 704 pixels
Height : 400 pixels
Display aspect ratio : 16:9
Frame rate : 23.976 fps
Color space : YUV
Chroma subsampling : 4:2:0
Bit depth : 8 bits
Scan type : Progressive
Compression mode : Lossy
Bits/(Pixel*Frame) : 0.323
Stream size : 1.38 GiB (94%)
Writing library : XviD 1.2.1 (UTC 2008-12-04)

Audio
ID : 1
Format : MPEG Audio
Format version : Version 1
Format profile : Layer 3
Mode : Joint stereo
Mode extension : MS Stereo
Codec ID : 55
Codec ID/Hint : MP3
Duration : 1h 30mn
Bit rate mode : Constant
Bit rate : 128 Kbps
Channel(s) : 2 channels
Sampling rate : 48.0 KHz
Compression mode : Lossy
Stream size : 82.6 MiB (6%)
Alignment : Aligned on interleaves
Interleave, duration : 42 ms (1.00 video frame)
Interleave, preload duration : 504 ms
Writing library : LAME3.90.3


Внимание! AdBlock блокирует показ скриншотов, все вопросы к разработчикам )))
Трекер:  [ 27-Апр-2013 10:18 ]

  

Скачать .torrent

Размер .torrent файла 15 KB


Размер: 1.46 GB
Хэш (hash) релиза: 3e3766c83bc66c873885e956676197209ffee2f7
Подписка на обновления:

Еще никто не оставлял запись к записи скачать торрент Место крушения Место катастрофы: семья в опасности . Будь первым!

!Обратная связь