Скачать через торрент музыку бесплатно без регистрации torrent

Статистика раздачи
Размер:  554 MB   |    Зарегистрирован:  3 года 10 месяцев   |    .torrent скачан:  194 раза   |   

Пиры будут получены при скачивании

 

Скачать (Electronic) [CD] ATB - Seven Years - 1998-2005 - 12 Jun 2005, FLAC (tracks+.cue), lossless через torrent

 
 
Автор Сообщение

Galfimbul

avatar Galfimbul


ATB / Seven Years - 1998-2005

Жанр: Electronic
Носитель: CD, Compilation
Страна-производитель диска (релиза): Ukraine
Год издания: 12 Jun 2005
Издатель (лейбл): Одиссей
Номер по каталогу: 09020
Страна исполнителя (группы): Germany
Аудиокодек: FLAC (*.flac)
Тип рипа: tracks+.cue
Продолжительность: 01:15:45
Источник: собственный рип
Наличие сканов в содержимом раздачи: да
Треклист:
01. Humanity (4:25)
02. Let U Go [2005 Reworked] (4:24)
03. Believe In Me 3:16)
04. Trilogie [Part 2] (4:11)
05. Take Me Over (4:13)
06. Far Beyond (3:40)
07. Here With Me (3:38)
08. Ecstasy (4:08)
09. Marrakech (3:45)
10. In Love With The D.J. (3:40)
11. Long Way Home (4:00)
12. I Don''t Wanna Stop (3:34)
13. You''re Not Alone (3:30)
14. Hold You (3:28)
15. Let U Go (3:27)
16. The Fields Of Love [Featuring – York] (3:43)
17. The Summer (3:46)
18. Killer (3:57)
19. Don''t Stop (3:44)
20. 9 Pm [Till I Come] (3:16)
 
Exact Audio Copy V1.5 from 20. February 2020

Отчёт EAC об извлечении, выполненном 27. июня 2020, 1:08

ATB / Seven Years: 1998–2005

Дисковод: ASUS DRW-24D5MT Adapter: 1 ID: 0

Режим чтения : Достоверность
Использование точного потока : Да
Отключение кэша аудио : Да
Использование указателей C2 : Нет

Коррекция смещения при чтении : 6
Способность читать области Lead-in и Lead-out : Нет
Заполнение пропущенных сэмплов тишиной : Да
Удаление блоков с тишиной в начале и конце : Нет
При вычислениях CRC использовались нулевые сэмплы : Да
Интерфейс : Встроенный Win32-интерфейс для Win NT/2000
Обработка зазоров : Добавлено к предыдущему треку

Выходной формат : Пользовательский кодировщик
Выбранный битрейт : 1024 kBit/s
Качество : Высокий
Добавление ID3-тега : Нет
Утилита сжатия : C:\Program Files (x86)\Exact Audio Copy\Flac\flac.exe
Дополнительные параметры : -5 -V -T "ARTIST=%artist%" -T "TITLE=%title%" -T "ALBUM=%albumtitle%" -T "DATE=%year%" -T "TRACKNUMBER=%tracknr%/%numtracks%" -T "GENRE=%genre%" -T "COMMENT=%comment%" %source% -o %dest%

TOC извлечённого CD

Трек | Старт | Длительность | Начальный сектор | Конечный сектор
---------------------------------------------------------------------
1 | 0:00.00 | 4:25.02 | 0 | 19876
2 | 4:25.02 | 4:24.29 | 19877 | 39705
3 | 8:49.31 | 3:16.41 | 39706 | 54446
4 | 12:05.72 | 4:11.52 | 54447 | 73323
5 | 16:17.49 | 4:13.19 | 73324 | 92317
6 | 20:30.68 | 3:40.58 | 92318 | 108875
7 | 24:11.51 | 3:38.31 | 108876 | 125256
8 | 27:50.07 | 4:08.48 | 125257 | 143904
9 | 31:58.55 | 3:45.14 | 143905 | 160793
10 | 35:43.69 | 3:40.24 | 160794 | 177317
11 | 39:24.18 | 4:00.62 | 177318 | 195379
12 | 43:25.05 | 3:34.18 | 195380 | 211447
13 | 46:59.23 | 3:30.44 | 211448 | 227241
14 | 50:29.67 | 3:28.22 | 227242 | 242863
15 | 53:58.14 | 3:27.55 | 242864 | 258443
16 | 57:25.69 | 3:43.41 | 258444 | 275209
17 | 61:09.35 | 3:46.51 | 275210 | 292210
18 | 64:56.11 | 3:57.02 | 292211 | 309987
19 | 68:53.13 | 3:44.42 | 309988 | 326829
20 | 72:37.55 | 3:16.47 | 326830 | 341576

Трек 1

Имя файла C:\Users\vital\Music\01 Humanity.wav

Длина предзазора 0:00:02.00

Пиковый уровень 89.1 %
Скорость извлечения 4.7 X
Качество трека 100.0 %
CRC теста CFDB5F75
CRC копии CFDB5F75
Точное извлечение (достоверность 5) [A7698D2D] (AR v2)
Копирование... OK

Трек 2

Имя файла C:\Users\vital\Music\02 Let U Go (2005 reworked).wav

Длина предзазора 0:00:01.52

Пиковый уровень 89.1 %
Скорость извлечения 5.2 X
Качество трека 100.0 %
CRC теста 2ED3B9C2
CRC копии 2ED3B9C2
Точное извлечение (достоверность 5) [145004B0] (AR v2)
Копирование... OK

Трек 3

Имя файла C:\Users\vital\Music\03 Believe in Me (single edit).wav

Длина предзазора 0:00:01.70

Пиковый уровень 92.8 %
Скорость извлечения 4.7 X
Качество трека 99.9 %
CRC теста CAFD7F06
CRC копии CAFD7F06
Точное извлечение (достоверность 5) [2D7B361F] (AR v2)
Копирование... OK

Трек 4

Имя файла C:\Users\vital\Music\04 Trilogie Part 2.wav

Длина предзазора 0:00:01.62

Пиковый уровень 94.4 %
Скорость извлечения 5.9 X
Качество трека 100.0 %
CRC теста 4FDB9A29
CRC копии 4FDB9A29
Точное извлечение (достоверность 5) [0C4D2994] (AR v2)
Копирование... OK

Трек 5

Имя файла C:\Users\vital\Music\05 Take Me Over.wav

Длина предзазора 0:00:01.45

Пиковый уровень 92.8 %
Скорость извлечения 6.2 X
Качество трека 100.0 %
CRC теста 9CBE4916
CRC копии 9CBE4916
Точное извлечение (достоверность 5) [BBD8F968] (AR v2)
Копирование... OK

Трек 6

Имя файла C:\Users\vital\Music\06 Far Beyond.wav

Длина предзазора 0:00:01.53

Пиковый уровень 96.6 %
Скорость извлечения 5.7 X
Качество трека 99.9 %
CRC теста DF5F7398
CRC копии DF5F7398
Точное извлечение (достоверность 5) [64347D8E] (AR v2)
Копирование... OK

Трек 7

Имя файла C:\Users\vital\Music\07 Here With Me.wav

Длина предзазора 0:00:01.20

Пиковый уровень 94.4 %
Скорость извлечения 6.7 X
Качество трека 100.0 %
CRC теста 2F6F7F2E
CRC копии 2F6F7F2E
Точное извлечение (достоверность 5) [F8A4FFC6] (AR v2)
Копирование... OK

Трек 8

Имя файла C:\Users\vital\Music\08 Ecstasy.wav

Длина предзазора 0:00:01.42

Пиковый уровень 98.5 %
Скорость извлечения 6.3 X
Качество трека 99.9 %
CRC теста A9EDEAA0
CRC копии A9EDEAA0
Точное извлечение (достоверность 5) [A95349BA] (AR v2)
Копирование... OK

Трек 9

Имя файла C:\Users\vital\Music\09 Marrakech.wav

Длина предзазора 0:00:01.59

Пиковый уровень 92.2 %
Скорость извлечения 7.3 X
Качество трека 100.0 %
CRC теста 5F958669
CRC копии 5F958669
Точное извлечение (достоверность 5) [899FDFBA] (AR v2)
Копирование... OK

Трек 10

Имя файла C:\Users\vital\Music\10 In Love With the DJ.wav

Длина предзазора 0:00:01.48

Пиковый уровень 94.3 %
Скорость извлечения 7.5 X
Качество трека 100.0 %
CRC теста 478779D6
CRC копии 478779D6
Точное извлечение (достоверность 5) [B7EC616D] (AR v2)
Копирование... OK

Трек 11

Имя файла C:\Users\vital\Music\11 Long Way Home.wav

Длина предзазора 0:00:01.58

Пиковый уровень 89.1 %
Скорость извлечения 7.8 X
Качество трека 100.0 %
CRC теста 7D9B1040
CRC копии 7D9B1040
Точное извлечение (достоверность 5) [436A648E] (AR v2)
Копирование... OK

Трек 12

Имя файла C:\Users\vital\Music\12 I Don’t Wanna Stop.wav

Длина предзазора 0:00:01.65

Пиковый уровень 86.0 %
Скорость извлечения 7.8 X
Качество трека 100.0 %
CRC теста FA44E44C
CRC копии FA44E44C
Точное извлечение (достоверность 5) [004219F0] (AR v2)
Копирование... OK

Трек 13

Имя файла C:\Users\vital\Music\13 You’re Not Alone (airplay mix).wav

Длина предзазора 0:00:01.64

Пиковый уровень 91.1 %
Скорость извлечения 8.1 X
Качество трека 100.0 %
CRC теста 7D5D3E43
CRC копии 7D5D3E43
Точное извлечение (достоверность 5) [9B6CBA31] (AR v2)
Копирование... OK

Трек 14

Имя файла C:\Users\vital\Music\14 Hold You.wav

Длина предзазора 0:00:03.60

Пиковый уровень 95.4 %
Скорость извлечения 8.3 X
Качество трека 100.0 %
CRC теста 00FA1406
CRC копии 00FA1406
Точное извлечение (достоверность 5) [4D98B7C1] (AR v2)
Копирование... OK

Трек 15

Имя файла C:\Users\vital\Music\15 Let U Go.wav

Длина предзазора 0:00:01.47

Пиковый уровень 94.3 %
Скорость извлечения 8.4 X
Качество трека 100.0 %
CRC теста E0C6BBD1
CRC копии E0C6BBD1
Точное извлечение (достоверность 5) [4754A8CB] (AR v2)
Копирование... OK

Трек 16

Имя файла C:\Users\vital\Music\16 The Fields of Love.wav

Длина предзазора 0:00:01.25

Пиковый уровень 94.3 %
Скорость извлечения 8.7 X
Качество трека 100.0 %
CRC теста 848B1791
CRC копии 848B1791
Точное извлечение (достоверность 5) [22158C74] (AR v2)
Копирование... OK

Трек 17

Имя файла C:\Users\vital\Music\17 The Summer.wav

Длина предзазора 0:00:01.50

Пиковый уровень 94.3 %
Скорость извлечения 8.9 X
Качество трека 100.0 %
CRC теста 202B8BBB
CRC копии 202B8BBB
Точное извлечение (достоверность 5) [D9DB9116] (AR v2)
Копирование... OK

Трек 18

Имя файла C:\Users\vital\Music\18 Killer (radio edit).wav

Длина предзазора 0:00:01.50

Пиковый уровень 100.0 %
Скорость извлечения 8.1 X
Качество трека 99.9 %
CRC теста 8070285E
CRC копии 8070285E
Точное извлечение (достоверность 5) [5468FD93] (AR v2)
Копирование... OK

Трек 19

Имя файла C:\Users\vital\Music\19 Don’t Stop (airplay edit).wav

Длина предзазора 0:00:01.55

Пиковый уровень 100.0 %
Скорость извлечения 9.3 X
Качество трека 100.0 %
CRC теста 83C9C016
CRC копии 83C9C016
Точное извлечение (достоверность 5) [C891FDDD] (AR v2)
Копирование... OK

Трек 20

Имя файла C:\Users\vital\Music\20 9 PM (Till I Come) (radio edit).wav

Длина предзазора 0:00:01.46

Пиковый уровень 100.0 %
Скорость извлечения 9.2 X
Качество трека 100.0 %
CRC теста 836C6AB6
CRC копии 836C6AB6
Точное извлечение (достоверность 5) [27FE64DC] (AR v2)
Копирование... OK

Все треки извлечены точно

Ошибок не произошло

Конец отчёта

==== Контрольная сумма отчёта 77DB08E148821735E2C81BE76A5796BA476569EA21E8DB0F62131BCC5E2360F0 ====

 
REM GENRE Electronic
REM DATE 2005
REM DISCID 1F11CA14
REM COMMENT "ExactAudioCopy v1.5"
PERFORMER "ATB"
TITLE "Seven Years: 1998–2005"
REM COMPOSER ""
FILE "01 Humanity.wav" WAVE
TRACK 01 AUDIO
TITLE "Humanity"
PERFORMER "ATB"
REM COMPOSER ""
FLAGS DCP
INDEX 01 00:00:00
TRACK 02 AUDIO
TITLE "Let U Go (2005 reworked)"
PERFORMER "ATB"
REM COMPOSER ""
FLAGS DCP
INDEX 00 04:23:25
FILE "02 Let U Go (2005 reworked).wav" WAVE
INDEX 01 00:00:00
TRACK 03 AUDIO
TITLE "Believe in Me (single edit)"
PERFORMER "ATB"
REM COMPOSER ""
FLAGS DCP
INDEX 00 04:22:34
FILE "03 Believe in Me (single edit).wav" WAVE
INDEX 01 00:00:00
TRACK 04 AUDIO
TITLE "Trilogie Part 2"
PERFORMER "ATB"
REM COMPOSER ""
FLAGS DCP
INDEX 00 03:14:54
FILE "04 Trilogie Part 2.wav" WAVE
INDEX 01 00:00:00
TRACK 05 AUDIO
TITLE "Take Me Over"
PERFORMER "ATB"
REM COMPOSER ""
FLAGS DCP
INDEX 00 04:10:07
FILE "05 Take Me Over.wav" WAVE
INDEX 01 00:00:00
TRACK 06 AUDIO
TITLE "Far Beyond"
PERFORMER "ATB"
REM COMPOSER ""
FLAGS DCP
INDEX 00 04:11:41
FILE "06 Far Beyond.wav" WAVE
INDEX 01 00:00:00
TRACK 07 AUDIO
TITLE "Here With Me"
PERFORMER "ATB"
REM COMPOSER ""
FLAGS DCP
INDEX 00 03:39:38
FILE "07 Here With Me.wav" WAVE
INDEX 01 00:00:00
TRACK 08 AUDIO
TITLE "Ecstasy"
PERFORMER "ATB"
REM COMPOSER ""
FLAGS DCP
INDEX 00 03:36:64
FILE "08 Ecstasy.wav" WAVE
INDEX 01 00:00:00
TRACK 09 AUDIO
TITLE "Marrakech"
PERFORMER "ATB"
REM COMPOSER ""
FLAGS DCP
INDEX 00 04:06:64
FILE "09 Marrakech.wav" WAVE
INDEX 01 00:00:00
TRACK 10 AUDIO
TITLE "In Love With the DJ"
PERFORMER "ATB"
REM COMPOSER ""
FLAGS DCP
INDEX 00 03:43:41
FILE "10 In Love With the DJ.wav" WAVE
INDEX 01 00:00:00
TRACK 11 AUDIO
TITLE "Long Way Home"
PERFORMER "ATB"
REM COMPOSER ""
FLAGS DCP
INDEX 00 03:38:41
FILE "11 Long Way Home.wav" WAVE
INDEX 01 00:00:00
TRACK 12 AUDIO
TITLE "I Don’t Wanna Stop"
PERFORMER "ATB"
REM COMPOSER ""
FLAGS DCP
INDEX 00 03:58:72
FILE "12 I Don’t Wanna Stop.wav" WAVE
INDEX 01 00:00:00
TRACK 13 AUDIO
TITLE "You’re Not Alone (airplay mix)"
PERFORMER "ATB"
REM COMPOSER ""
FLAGS DCP
INDEX 00 03:32:29
FILE "13 You’re Not Alone (airplay mix).wav" WAVE
INDEX 01 00:00:00
TRACK 14 AUDIO
TITLE "Hold You"
PERFORMER "ATB"
REM COMPOSER ""
FLAGS DCP
INDEX 00 03:26:59
FILE "14 Hold You.wav" WAVE
INDEX 01 00:00:00
TRACK 15 AUDIO
TITLE "Let U Go"
PERFORMER "ATB"
REM COMPOSER ""
FLAGS DCP
INDEX 00 03:26:50
FILE "15 Let U Go.wav" WAVE
INDEX 01 00:00:00
TRACK 16 AUDIO
TITLE "The Fields of Love"
PERFORMER "ATB"
REM COMPOSER ""
FLAGS DCP
INDEX 00 03:26:30
FILE "16 The Fields of Love.wav" WAVE
INDEX 01 00:00:00
TRACK 17 AUDIO
TITLE "The Summer"
PERFORMER "ATB"
REM COMPOSER ""
FLAGS DCP
INDEX 00 03:41:66
FILE "17 The Summer.wav" WAVE
INDEX 01 00:00:00
TRACK 18 AUDIO
TITLE "Killer (radio edit)"
PERFORMER "ATB"
REM COMPOSER ""
FLAGS DCP
INDEX 00 03:45:01
FILE "18 Killer (radio edit).wav" WAVE
INDEX 01 00:00:00
TRACK 19 AUDIO
TITLE "Don’t Stop (airplay edit)"
PERFORMER "ATB"
REM COMPOSER ""
FLAGS DCP
INDEX 00 03:55:22
FILE "19 Don’t Stop (airplay edit).wav" WAVE
INDEX 01 00:00:00
TRACK 20 AUDIO
TITLE "9 PM (Till I Come) (radio edit)"
PERFORMER "ATB"
REM COMPOSER ""
FLAGS DCP
INDEX 00 03:42:71
FILE "20 9 PM (Till I Come) (radio edit).wav" WAVE
INDEX 01 00:00:00



Внимание! AdBlock блокирует показ скриншотов, все вопросы к разработчикам )))

Трекер:  [ 28-Июн-2020 08:52 ]

  

Скачать .torrent

Размер .torrent файла 12 KB


Размер: 554 MB
Хэш (hash) релиза: 6ace32fb75af19d588f2f69af56028ab2b082a21

Еще никто не оставлял запись к записи скачать торрент . Будь первым!

!Обратная связь