Скачать через торрент музыку бесплатно без регистрации torrent

Статистика раздачи
Размер:  518 MB   |    Зарегистрирован:  3 года 11 месяцев   |    .torrent скачан:  57 раз   |   

Пиры будут получены при скачивании

 

Скачать (Garage House, UK Garage) [CD] VA - DJ Hottabski - 4tune Mix - 2005, FLAC (image+.cue), lossless через torrent

 
 
Автор Сообщение

Galfimbul

avatar Galfimbul


DJ Hottabski - 4tune Mix

Жанр: Garage House, UK Garage
Носитель: CD
Год издания: 2005
Издатель (лейбл): Mediatone
Номер по каталогу: MT-075
Аудиокодек: FLAC (*.flac)
Тип рипа: image+.cue
Продолжительность: 71:48
Источник: собственный рип
Наличие сканов в содержимом раздачи: да
Треклист:

01. Box Clever feat. Sara Garvey - Questions (5:07)
02. Lee Viner - It Makes Me Feel (4:51)
03. Lee Viner - Feelin Funky (3:37)
04. ODM - Always Be There (ODM's Re-Vox Dub) (4:51)
05. Misty Dubs - I've Had It (3:53)
06. Blaque - I'm Good (Da Phuture 4*4 Vox) (5:05)
07. Groove Skool - Precious Love (4:51)
08. MJ Cole - Never Say Never (Duncan Powell Remix) (3:53)
09. Ramsey & Lico feat. Stacey Barnes & Ferah - Memory (5:06)
10. Club Asylum - Don't You Wanna Be (Original Mix) (4:07)
11. Deekline And Wizard - Ill Street Blues (MJ Cole Mix) (5:20)
12. Club Asylum - Hypnotise (Original Mix) (3:38)
13. Duncan Powell - Never Part (3:38)
14. El-Tuff - I Belong To You (5:19)
15. Wideboys feat. MC Rusty - Heartache (Funk Mix) (3:53)
16. Sugar Beetz - In Your Eyes (4:38)

 

Exact Audio Copy V1.5 from 20. February 2020

EAC extraction logfile from 23. June 2020, 23:14

DJ Hottabski / 4tune Mix

Used drive : ASUS SDRW-08D2S-U Adapter: 9 ID: 2

Read mode : Secure
Utilize accurate stream : Yes
Defeat audio cache : Yes
Make use of C2 pointers : No

Read offset correction : 6
Overread into Lead-In and Lead-Out : No
Fill up missing offset samples with silence : Yes
Delete leading and trailing silent blocks : No
Null samples used in CRC calculations : Yes
Used interface : Installed external ASPI interface

Used output format : User Defined Encoder
Selected bitrate : 128 kBit/s
Quality : High
Add ID3 tag : No
Command line compressor : D:\flac-1.3.2-win\win64\flac.exe
Additional command line options : -8 -V -T "ARTIST=%artist%" -T "TITLE=%title%" -T "ALBUM=%albumtitle%" -T "DATE=%year%" -T "TRACKNUMBER=%tracknr%" -T "GENRE=%genre%" -T "COMMENT=ripped by Andy aka yetiisyou" %source%

TOC of the extracted CD

Track | Start | Length | Start sector | End sector
---------------------------------------------------------
1 | 0:00.00 | 5:07.00 | 0 | 23024
2 | 5:07.00 | 4:50.47 | 23025 | 44821
3 | 9:57.47 | 3:37.37 | 44822 | 61133
4 | 13:35.09 | 4:51.07 | 61134 | 82965
5 | 18:26.16 | 3:52.55 | 82966 | 100420
6 | 22:18.71 | 5:04.60 | 100421 | 123280
7 | 27:23.56 | 4:51.00 | 123281 | 145105
8 | 32:14.56 | 3:52.73 | 145106 | 162578
9 | 36:07.54 | 5:05.62 | 162579 | 185515
10 | 41:13.41 | 4:07.37 | 185516 | 204077
11 | 45:21.03 | 5:20.24 | 204078 | 228101
12 | 50:41.27 | 3:38.35 | 228102 | 244486
13 | 54:19.62 | 3:38.27 | 244487 | 260863
14 | 57:58.14 | 5:19.22 | 260864 | 284810
15 | 63:17.36 | 3:53.06 | 284811 | 302291
16 | 67:10.42 | 4:37.58 | 302292 | 323124

Range status and errors

Selected range

Filename E:\!Ripped by Andy aka yetiisyou\VA - DJ Hottabski - 4tune Mix [MT-075] [2005]\DJ Hottabski - 4tune Mix.wav

Peak level 97.0 %
Extraction speed 4.9 X
Range quality 100.0 %
Test CRC D9348619
Copy CRC D9348619
Copy OK

No errors occurred

AccurateRip summary

Track 1 not present in database
Track 2 not present in database
Track 3 not present in database
Track 4 not present in database
Track 5 not present in database
Track 6 not present in database
Track 7 not present in database
Track 8 not present in database
Track 9 not present in database
Track 10 not present in database
Track 11 not present in database
Track 12 not present in database
Track 13 not present in database
Track 14 not present in database
Track 15 not present in database
Track 16 not present in database

None of the tracks are present in the AccurateRip database

End of status report

---- CUETools DB Plugin V2.1.6

[CTDB TOCID: C2dpvyn_dcjDrkzCGcekcIfZmMs-] disk not present in database
Submit result: C2dpvyn_dcjDrkzCGcekcIfZmMs- has been uploaded

==== Log checksum CD33CE590CA38C6EF9FC963F4B9A78F623DE2C719C7A73BC6B96A43161A6B4D2 ====


 

REM DATE 2005
REM DISCID E610D410
REM COMMENT "ExactAudioCopy v1.5"
PERFORMER "DJ Hottabski"
TITLE "4tune Mix"
REM COMPOSER ""
FILE "DJ Hottabski - 4tune Mix.flac" WAVE
TRACK 01 AUDIO
TITLE "Questions"
PERFORMER "Box Clever feat. Sara Garvey"
REM COMPOSER ""
FLAGS DCP
INDEX 01 00:00:00
TRACK 02 AUDIO
TITLE "It Makes Me Feel"
PERFORMER "Lee Viner"
REM COMPOSER ""
FLAGS DCP
INDEX 01 05:07:00
TRACK 03 AUDIO
TITLE "Feelin Funky"
PERFORMER "Lee Viner"
REM COMPOSER ""
FLAGS DCP
INDEX 01 09:57:47
TRACK 04 AUDIO
TITLE "Always Be There (ODM's Re-Vox Dub)"
PERFORMER "ODM"
REM COMPOSER ""
FLAGS DCP
INDEX 01 13:35:09
TRACK 05 AUDIO
TITLE "I've Had It"
PERFORMER "Misty Dubs"
REM COMPOSER ""
FLAGS DCP
INDEX 01 18:26:16
TRACK 06 AUDIO
TITLE "I'm Good (Da Phuture 4*4 Vox)"
PERFORMER "Blaque"
REM COMPOSER ""
FLAGS DCP
INDEX 01 22:18:71
TRACK 07 AUDIO
TITLE "Precious Love"
PERFORMER "Groove Skool"
REM COMPOSER ""
FLAGS DCP
INDEX 01 27:23:56
TRACK 08 AUDIO
TITLE "Never Say Never (Duncan Powell Remix)"
PERFORMER "MJ Cole"
REM COMPOSER ""
FLAGS DCP
INDEX 01 32:14:56
TRACK 09 AUDIO
TITLE "Memory"
PERFORMER "Ramsey & Lico feat. Stacey Barnes & Ferah"
REM COMPOSER ""
FLAGS DCP
INDEX 01 36:07:54
TRACK 10 AUDIO
TITLE "Don't You Wanna Be (Original Mix)"
PERFORMER "Club Asylum"
REM COMPOSER ""
FLAGS DCP
INDEX 01 41:13:41
TRACK 11 AUDIO
TITLE "Ill Street Blues (MJ Cole Mix)"
PERFORMER "Deekline And Wizard"
REM COMPOSER ""
FLAGS DCP
INDEX 01 45:21:03
TRACK 12 AUDIO
TITLE "Hypnotise (Original Mix)"
PERFORMER "Club Asylum"
REM COMPOSER ""
FLAGS DCP
INDEX 01 50:41:27
TRACK 13 AUDIO
TITLE "Never Part"
PERFORMER "Duncan Powell"
REM COMPOSER ""
FLAGS DCP
INDEX 01 54:19:62
TRACK 14 AUDIO
TITLE "I Belong To You"
PERFORMER "El-Tuff"
REM COMPOSER ""
FLAGS DCP
INDEX 01 57:58:14
TRACK 15 AUDIO
TITLE "Heartache (Funk Mix)"
PERFORMER "Wideboys feat. MC Rusty"
REM COMPOSER ""
FLAGS DCP
INDEX 01 63:17:36
TRACK 16 AUDIO
TITLE "In Your Eyes"
PERFORMER "Sugar Beetz"
REM COMPOSER ""
FLAGS DCP
INDEX 01 67:10:42



Внимание! AdBlock блокирует показ скриншотов, все вопросы к разработчикам )))

Трекер:  [ 28-Июн-2020 08:52 ]

  

Скачать .torrent

Размер .torrent файла 11 KB


Размер: 518 MB
Хэш (hash) релиза: bab47aeb372c1a98bbce004122e6859947c92962

Еще никто не оставлял запись к записи скачать торрент . Будь первым!

!Обратная связь