Harley Quinn torrent

UnionPeer.org . . UnionPeer.org 2014 2015 . .

Harley Quinn .torrent

5.94 GB   |    :  3    |    .torrent :  85    |   

   
 

Galfimbul

avatar Galfimbul


/Harley Quinn

: 2019
: , , , , , ,
: , -,
: , , , , , , .. , , ,

:
.


:
: ~ 00:23:05 ()
: (, ) | Flarrow Films


: MKV
: MPEG-4 AVC
: WEBRip 1080p
: 1920x1080, ~ 4 985 kb/s, 23.976 FPS, 8 bits
: AC-3, ~ 320 kb/s, 2 channels, 48.0 kHz
:

1-
General
Unique ID : 156941100494878279533238790684441486405 (0x7611C1A9A4F3B0A5B110EF16C362A445)
Complete name : C:FlarrowHarley.Quinn.S02.1080p.Flarrow.FilmsHarley.Quinn.S02E01.mkv
Format : Matroska
Format version : Version 4
File size : 870 MiB
Duration : 22 min 56 s
Overall bit rate : 5 303 kb/s
Encoded date : UTC 2020-04-05 17:15:03
Writing application : mkvmerge v32.0.0 ('Astral Progressions') 64-bit
Writing library : libebml v1.3.7 + libmatroska v1.5.0

Video
ID : 1
Format : AVC
Format/Info : Advanced Video Codec
Format profile : [email protected]
Format settings : 3 Ref Frames
Format settings, CABAC : No
Format settings, Reference : 3 frames
Format settings, GOP : M=1, N=48
Codec ID : V_MPEG4/ISO/AVC
Duration : 22 min 55 s
Bit rate : 4 985 kb/s
Width : 1 920 pixels
Height : 1 080 pixels
Display aspect ratio : 16:9
Frame rate mode : Constant
Frame rate : 23.976 (24000/1001) FPS
Color space : YUV
Chroma subsampling : 4:2:0
Bit depth : 8 bits
Scan type : Progressive
Bits/(Pixel*Frame) : 0.100
Stream size : 817 MiB (94%)
Writing library : Zencoder Video Encoding System
Default : Yes
Forced : No
Color range : Limited
Color primaries : BT.709
Transfer characteristics : BT.709
Matrix coefficients : BT.709

Audio
ID : 2
Format : AC-3
Format/Info : Audio Coding 3
Commercial name : Dolby Digital
Codec ID : A_AC3
Duration : 22 min 56 s
Bit rate mode : Constant
Bit rate : 320 kb/s
Channel(s) : 2 channels
Channel layout : L R
Sampling rate : 48.0 kHz
Frame rate : 31.250 FPS (1536 SPF)
Compression mode : Lossy
Stream size : 52.5 MiB (6%)
Service kind : Complete Main
Default : Yes
Forced : No



2-
General
Unique ID : 74639177443371575332183176380139532675 (0x3826FB9153AE39CCE1CCA3B0A7857183)
Complete name : C:FlarrowHarley.Quinn.S02.1080p.Flarrow.FilmsHarley.Quinn.S02E02.mkv
Format : Matroska
Format version : Version 4
File size : 869 MiB
Duration : 22 min 56 s
Overall bit rate : 5 295 kb/s
Encoded date : UTC 2020-04-12 12:32:05
Writing application : mkvmerge v32.0.0 ('Astral Progressions') 64-bit
Writing library : libebml v1.3.7 + libmatroska v1.5.0
Cover : Yes
Attachments : small_cover.jpg / cover.jpg / cover_land.jpg / small_cover_land.jpg

Video
ID : 1
Format : AVC
Format/Info : Advanced Video Codec
Format profile : [email protected]
Format settings : 3 Ref Frames
Format settings, CABAC : No
Format settings, Reference : 3 frames
Format settings, GOP : M=1, N=48
Codec ID : V_MPEG4/ISO/AVC
Duration : 22 min 55 s
Bit rate : 4 976 kb/s
Width : 1 920 pixels
Height : 1 080 pixels
Display aspect ratio : 16:9
Frame rate mode : Constant
Frame rate : 23.976 (24000/1001) FPS
Color space : YUV
Chroma subsampling : 4:2:0
Bit depth : 8 bits
Scan type : Progressive
Bits/(Pixel*Frame) : 0.100
Stream size : 816 MiB (94%)
Writing library : Zencoder Video Encoding System
Default : Yes
Forced : No
Color range : Limited
Color primaries : BT.709
Transfer characteristics : BT.709
Matrix coefficients : BT.709

Audio
ID : 2
Format : AC-3
Format/Info : Audio Coding 3
Commercial name : Dolby Digital
Codec ID : A_AC3
Duration : 22 min 56 s
Bit rate mode : Constant
Bit rate : 320 kb/s
Channel(s) : 2 channels
Channel layout : L R
Sampling rate : 48.0 kHz
Frame rate : 31.250 FPS (1536 SPF)
Compression mode : Lossy
Stream size : 52.5 MiB (6%)
Service kind : Complete Main
Default : Yes
Forced : No


: Flarrow Films



http://listRutor.org

! AdBlock , )))
 ·  , , FAQ-
:  [ 18--2020 13:10 ]

  

.torrent

.torrent 15 KB


: 5.94 GB
(hash) : 025dd4c5b721ff86ca0b514d4407dcef4d00ac94
:
··
...

, Harley Quinn

S L
2016-2020 ( ) ·%·  / Harley Quinn [02x01-06 13] (2019) WEBRip 1080p | Flarrow Films Galfimbul 54703746495.09 GB 0 0 1589180433

10:00

11--20

2016-2020 ( ) ·%·  / Harley Quinn [02x01-05 13] (2019) WEBRip 1080p | Flarrow Films Galfimbul 45583754754.25 GB 0 0 1588504896

14:21

3--20

2016-2020 ( ) ·%·  / Harley Quinn [02x01-04 13] (2019) WEBRip 1080p | Flarrow Films Galfimbul 36466722993.4 GB 0 0 1587979323

12:22

27--20

2016-2020 ( ) ·%·  / Harley Quinn [02x01-03 13] (2019) WEBRip 1080p | Flarrow Films Galfimbul 27359092722.55 GB 0 0 1587370937

11:22

20--20

2016-2020 ( ) ·%·  / Harley Quinn [02x01 13] (2020) WEB-DLRip | NewStation Galfimbul 235132928224 MB 0 0 1586955721

16:02

15--20

2016-2020 ( ) ·%·  / Harley Quinn [02x01 13] (2020) WEB-DL 720p | NewStation Galfimbul 733980940700 MB 0 0 1586955712

16:01

15--20

2016-2020 ( ) ·%·  / Harley Quinn [02x01 13] (2020) WEB-DL 1080p | NewStation Galfimbul 10775097011 GB 0 0 1586955703

16:01

15--20

2016-2020 ( ) ·%·  / Harley Quinn [02x01 13] (2020) WEB-DL-HEVC 2160p | 4K | HDR | NewStation Galfimbul 19960039631.86 GB 0 0 1586955693

16:01

15--20

2016-2020 ( ) ·%·  / Harley Quinn [02x01-02 13] (2019) WEBRip 1080p | Flarrow Films Galfimbul 18233355651.7 GB 0 0 1586709050

19:30

12--20

2016-2020 ( ) ·%·  / Harley Quinn [02x01 13] (2019) WEB-DL 1080p | Jaskier Galfimbul 989423394944 MB 0 0 1586278978

20:02

7--20

2016-2020 ( ) ·%·  / Harley Quinn [02x01 13] (2019) WEB-DL 720p | Jaskier Galfimbul 645899650616 MB 0 0 1586278970

20:02

7--20

2016-2020 ( ) ·%·  / Harley Quinn [02x01 13] (2019) WEB-DLRip | Jaskier Galfimbul 287225856274 MB 0 0 1586278963

20:02

7--20

2016-2020 ( ) ·%·  / Harley Quinn [02x01 13] (2019) WEBRip 1080p | Flarrow Films Galfimbul 912365261870 MB 0 0 1586146866

07:21

6--20

2016-2020 ( ) ·%·  / Harley Quinn [02x01 13] (2020) WEBRip 720p | Hamsterstudio Galfimbul 543978974519 MB 0 0 1586116333

22:52

5--20

2016-2020 ( ) ·%·  / Harley Quinn [02x01 13] (2020) WEBRip 1080p | Hamsterstudio Galfimbul 877776401837 MB 0 0 1586116320

22:52

5--20

2016-2020 ( ) ·%·  / Harley Quinn [02x01 13] (2020) WEBRip | Hamsterstudio Galfimbul 208635904199 MB 0 0 1586116308

22:51

5--20

2016-2020 ( ) ·%·  / Harley Quinn [02x01 13] (2020) WEBRip Kerob | L Galfimbul 239241216228 MB 0 0 1585928425

18:40

3--20

2016-2020 ( ) ·%·  / Harley Quinn [02x01 13] (2020) WEBRip 1080p Kerob | L Galfimbul 1044253902996 MB 0 0 1585927347

18:22

3--20

2016-2020 ( ) ·%·  / Harley Quinn [02x01 13] (2020) WEBRip 720p Kerob | L Galfimbul 700722080668 MB 0 0 1585927341

18:22

3--20

Harley Quinn . !

!