Скачать через торрент Ядерное танго Фильм бесплатно в хорошем качестве torrent

Скачивайте на UnionPeer.org фильмы через торрент без регистрации. Новинки кино в хорошем качестве через торрент. На UnionPeer.org можно скачать через торрент фильмы 2014 и 2015 годов. Самые новые фильмы.

Скачать торрент Ядерное танго бесплатно через .torrent фильм мультфильм сериал

Статистика раздачи
Размер:  1.05 GB   |    Зарегистрирован:  4 года 3 месяца   |    .torrent скачан:  40 раз   |   
Раздают:  1  
 

Скачать Ядерное танго (Виктор Бутурлин) [1993, Документальный, DVDRip] через torrent

 
 
Автор Сообщение

Galfimbul

avatar Galfimbul


Ядерное танго

Дата/Год выпуска: 1993 год
Страна: Россия
Жанр: Документальный
Продолжительность: 00:45:41
Перевод: Не требуется
Студия: АО "ТОР"
Русские субтитры: нет

Режиссер: Виктор Бутурлин

Описание: Фильм посвящен героям и жертвам экологического преступления 1954 года: в семистах километрах от Москвы произошла репетиция атомной войны с участием 50-тысячной армии.

качество: DVDRip
формат: MP4
Видео: MPEG-4 AVC, 720x576, (4:3), 2976 Kbps, 25 fps
Аудио: AAC LC, 317 Kbps, 48.0 Khz, 2 канала


ОбщееПолное имя : C:\Users\777\Documents\Downloads\ЯДЕРНОЕ ТАНГО рип2.mp4Формат : MPEG-4Профиль формата : Base Media / Version 2Идентификатор кодека : mp42 (mp42/mp41)Размер файла : 1,05 ГбайтПродолжительность : 45 м. 41 с.Режим общего битрейта : ПеременныйОбщий поток : 3297 Кбит/секДата кодирования : UTC 2020-01-27 22:40:48Дата пометки : UTC 2020-01-27 22:50:44TIM : 00:00:00:00TSC : 25TSZ : 1

ВидеоИдентификатор : 1Формат : AVCФормат/Информация : Advanced Video CodecПрофиль формата : [email protected]Настройки формата : CABAC / 4 Ref FramesПараметр CABAC формата : ДаПараметр RefFrames формата : 4 кадраПараметр GOP формата : M=4, N=25Идентификатор кодека : avc1Идентификатор кодека/Информация : Advanced Video CodingПродолжительность : 45 м. 41 с.Битрейт : 2976 Кбит/секШирина : 720 пикселейВысота : 576 пикселейСоотношение сторон : 4:3Соотношение сторон в оригинале : 4:3Режим частоты кадров : ПостоянныйЧастота кадров : 25,000 кадров/секСтандарт вещания : PALЦветовое пространство : YUVСубдискретизация насыщенности : 4:2:0Битовая глубина : 8 битТип развёртки : ПрогрессивнаяБит/(Пиксели*Кадры) : 0.287Размер потока : 973 Мбайт (90%)Язык : EnglishДата кодирования : UTC 2020-01-27 22:40:48Дата пометки : UTC 2020-01-27 22:40:48Цветовой диапазон : LimitedОсновные цвета : BT.601 PALХарактеристики трансфера : BT.470 System B/GКоэффициенты матрицы : BT.470 System B/GCodec configuration box : avcC

АудиоИдентификатор : 2Формат : AAC LCФормат/Информация : Advanced Audio Codec Low ComplexityИдентификатор кодека : mp4a-40-2Продолжительность : 45 м. 41 с.Продолжительность оригинала : 45 м. 41 с.Вид битрейта : ПеременныйБитрейт : 317 Кбит/секМаксимальный битрейт : 369 Кбит/секКаналы : 2 каналаChannelLayout : L RЧастота : 48,0 КГцЧастота кадров : 46,875 кадров/сек (1024 SPF)Метод сжатия : С потерямиРазмер потока : 104 Мбайт (10%)Размер потока оригинала : 104 Мбайт (10%)Язык : EnglishДата кодирования : UTC 2020-01-27 22:40:48Дата пометки : UTC 2020-01-27 22:40:48


Внимание! AdBlock блокирует показ скриншотов, все вопросы к разработчикам )))

Трекер:  [ 19-Фев-2020 09:36 ]

  

Скачать .torrent

Размер .torrent файла 11 KB


Размер: 1.05 GB
Хэш (hash) релиза: e689bf42cdd88b6226bea6348bf97ae7ca6b6777
Подписка на обновления:

Еще никто не оставлял запись к записи скачать торрент Ядерное танго . Будь первым!

!Обратная связь