Скачать через торрент Подкидыши Окно жизни Фильм бесплатно в хорошем качестве torrent

Скачивайте на UnionPeer.org фильмы через торрент без регистрации. Новинки кино в хорошем качестве через торрент. На UnionPeer.org можно скачать через торрент фильмы 2014 и 2015 годов. Самые новые фильмы.

Скачать торрент Подкидыши Окно жизни бесплатно через .torrent фильм мультфильм сериал

Статистика раздачи
Размер:  12.9 GB   |    Зарегистрирован:  6 лет 4 месяца   |    .torrent скачан:  25 раз   |   
Раздают:  1  
 

Скачать Подкидыши / Окно жизни / Сезон: 2 / Серии: 1-24 из 24 (Максим Паперник, Владимир Мельниченко) [2017, драма, мелодрама, WEBRip] через torrent

 
 
Автор Сообщение

Galfimbul

avatar Galfimbul


Подкидыши / Окно жизни

Год выпуска: 2017
Производство: Film.UA
Жанр: драма, мелодрама
Продолжительность: ~00:47:00 серия
Субтитры: нет

Режиссёр: Максим Паперник, Владимир Мельниченко

В ролях: Екатерина Решетникова, Валерия Шкирандо, Константин Самоуков, Александр Мохов, Наталия Васько, Инна Мирошниченко

Описание: Одни готовы отдать любые деньги, чтобы услышать от врача «Поздравляю, вы беременны» и познать радость материнства. Другие, наоборот, способны добровольно отказаться от маленького счастья и передать новорождённого в руки врачей, не думая о том, что ждёт его в будущем. Кого из малышей ждёт счастливая жизнь в новой семье? Кому не повезёт с приёмными родителями? А кто окажется в детдоме или на грани жизни и смерти? О детях, оставленных в специальном боксе для новорождённых, будут заботиться врачи во главе с заведующей отделением Верой Соколовой.

Реклама: Нет.



Sample

Качество: WEBRip - Files-x
Формат: AVI
Видео кодек: XviD
Аудио кодек: AC3
Видео: 720x400 (1.80:1), 25 fps, XviD build 73 ~1400 kbps avg, 0.199 bit/pixel
Аудио: 48 kHz, AC3 Dolby Digital, 2/0 (L,R) ch, ~ 192 kbps
General
Complete name : D:\Подкидыши 2 сезон 2017 WEBRip\01.Podkidychi.2.2017.WEB-DLRip.Files-x.avi
Format : AVI
Format/Info : Audio Video Interleave
File size : 551 MiB
Duration : 47mn 9s
Overall bit rate : 1 633 Kbps
Writing application : VirtualDubMod 1.5.10.3 | www.virtualdub-fr.org || (build 2550/release)
Writing library : VirtualDubMod build 2550/release

Video
ID : 0
Format : MPEG-4 Visual
Format profile : Advanced Simple@L5
Format settings, BVOP : 1
Format settings, QPel : No
Format settings, GMC : No warppoints
Format settings, Matrix : Custom
Codec ID : XVID
Codec ID/Hint : XviD
Duration : 47mn 9s
Bit rate : 1 431 Kbps
Width : 720 pixels
Height : 400 pixels
Display aspect ratio : 16:9
Frame rate : 25.000 fps
Color space : YUV
Chroma subsampling : 4:2:0
Bit depth : 8 bits
Scan type : Progressive
Compression mode : Lossy
Bits/(Pixel*Frame) : 0.199
Stream size : 483 MiB (88%)
Writing library : XviD 73

Audio
ID : 1
Format : AC-3
Format/Info : Audio Coding 3
Mode extension : CM (complete main)
Format settings, Endianness : Big
Codec ID : 2000
Duration : 47mn 9s
Bit rate mode : Constant
Bit rate : 192 Kbps
Channel count : 2 channels
Channel positions : Front: L R
Sampling rate : 48.0 KHz
Bit depth : 16 bits
Compression mode : Lossy
Stream size : 64.8 MiB (12%)
Alignment : Split accross interleaves
Interleave, duration : 40 ms (1.00 video frame)
Interleave, preload duration : 500 ms


Внимание! AdBlock блокирует показ скриншотов, все вопросы к разработчикам )))
Трекер:  [ 30-Сен-2017 15:18 ]

  

Скачать .torrent

Размер .torrent файла 66 KB


Размер: 12.9 GB
Хэш (hash) релиза: 8c79be880139cb116d282619143e1bff8b01af10
Подписка на обновления:

Еще никто не оставлял запись к записи скачать торрент Подкидыши Окно жизни . Будь первым!

!Обратная связь