Скачать через торрент Месть придурков Месть полудурков Фильм бесплатно в хорошем качестве torrent

Скачивайте на UnionPeer.org фильмы через торрент без регистрации. Новинки кино в хорошем качестве через торрент. На UnionPeer.org можно скачать через торрент фильмы 2014 и 2015 годов. Самые новые фильмы.

Скачать торрент Месть придурков Месть полудурков бесплатно через .torrent фильм мультфильм сериал

Статистика раздачи
Размер:  4.29 GB   |    Зарегистрирован:  13 лет   |    .torrent скачан:  82 раза   |   
Раздают:  1   Качают:  1  
 

Скачать Месть придурков / Месть полудурков / Revenge of the Nerds (Джэфф Кэнью / Jeff Kanew) [1984 г., США, Комедия, HDTVRip 720p] DVO + original (eng) + Sub (eng) через torrent

 
 
Автор Сообщение

MaTaDoRe

avatar MaTaDoRe


Месть придурков / Revenge of the Nerds

Год выпуска: 1984
Страна: США
Жанр: Комедия
Продолжительность: 01:30:04
Перевод: Профессиональный (двухголосый, закадровый)
Субтитры: английские
Оригинальная аудиодорожка: Английский
Режиссер: Джэфф Кэнью / Jeff Kanew
В ролях: Роберт Кэррадайн, Энтони Эдвардс, Джеймс Кромвелл, Джон Гудман, Тимоти Басфилд, Эндрю Кассис, Кертис Армстронг, Лэрри Б. Скотт

Описание: В Адамс-колледже всем заправляют спортсмены, объединенные братством Альфа-Бета. И когда в студенческом городке появляются «социально неприкаянные», они сразу же получают от ворот поворот. Но местные придурки решают поддержать братьев по несчастью и создать собственное братство.
В результате, разгорается нешуточная борьба — парни из Альфа-Бета намерены задавить своих новых конкурентов. В этой схватке мозгов с мышцами придурки изобретают план, который помогает им взять верх… и занять приличествующее место на вершине социальной лестницы!




Качество: HDTVRip 720p
Формат: MKV
Видео кодек: H.264
Аудио кодек: AC3
Видео: 1280 x 720; 23,976 fps; 6560 Kbps
Аудио1: Русский, AC3 1.0 128 Kbps 48,0 КГц
Аудио2: English, AC3 1.0 128 Kbps 48,0 КГц
Субтитры: softsub (SRT)

G:\HDFILMS\Revenge.Of.The.Nerds.1984.720p.HDTVRip.Rus.Eng.mkv
General
Complete name : G:\HDFILMS\Revenge.Of.The.Nerds.1984.720p.HDTVRip.Rus.Eng.mkv
Format : Matroska
File size : 4.29 GiB
Duration : 1h 30mn
Overall bit rate : 6 817 Kbps
Encoded date : UTC 2010-11-20 17:26:12
Writing application : mkvmerge v2.9.8 ('C'est le bon') built on Aug 13 2009 12:49:06
Writing library : libebml v0.7.7 + libmatroska v0.8.1
Video #1
ID : 1
Format : AVC
Format/Info : Advanced Video Codec
Format profile : [email protected]
Format settings, CABAC : Yes
Format settings, ReFrames : 4 frames
Muxing mode : Container [email protected]
Codec ID : V_MPEG4/ISO/AVC
Duration : 1h 30mn
Bit rate : 6 560 Kbps
Width : 1 280 pixels
Height : 720 pixels
Display aspect ratio : 16:9
Frame rate : 23.976 fps
Color space : YUV
Chroma subsampling : 4:2:0
Bit depth : 8 bits
Scan type : Progressive
Bits/(Pixel*Frame) : 0.297
Stream size : 4.04 GiB (94%)
Writing library : x264 core 65 r999M cc51047
Encoding settings : cabac=1 / ref=4 / deblock=1:-1:-1 / analyse=0x3:0x113 / me=umh / subme=8 / psy_rd=1.0:0.0 / mixed_ref=1 / me_range=16 / chroma_me=1 / trellis=2 / 8x8dct=1 / cqm=0 / deadzone=21,11 / chroma_qp_offset=-2 / threads=3 / nr=0 / decimate=1 / mbaff=0 / bframes=3 / b_pyramid=0 / b_adapt=2 / b_bias=0 / direct=3 / wpredb=1 / keyint=250 / keyint_min=25 / scenecut=40(pre) / rc=2pass / bitrate=6560 / ratetol=1.0 / qcomp=0.60 / qpmin=10 / qpmax=51 / qpstep=4 / cplxblur=20.0 / qblur=0.5 / vbv_maxrate=50000 / vbv_bufsize=50000 / ip_ratio=1.40 / pb_ratio=1.30 / aq=1:1.00
Language : English
Audio #2
ID : 2
Format : AC-3
Format/Info : Audio Coding 3
Mode extension : CM (complete main)
Codec ID : A_AC3
Duration : 1h 30mn
Bit rate mode : Constant
Bit rate : 128 Kbps
Channel(s) : 1 channel
Channel positions : Front: C
Sampling rate : 48.0 KHz
Bit depth : 16 bits
Stream size : 82.5 MiB (2%)
Title : DVO AC3 1.0 128 kbps
Language : Russian
Audio #3
ID : 3
Format : AC-3
Format/Info : Audio Coding 3
Mode extension : CM (complete main)
Codec ID : A_AC3
Duration : 1h 30mn
Bit rate mode : Constant
Bit rate : 128 Kbps
Channel(s) : 1 channel
Channel positions : Front: C
Sampling rate : 48.0 KHz
Bit depth : 16 bits
Stream size : 82.5 MiB (2%)
Title : Original AC3 1.0 128 kbps
Language : English
Text #4
ID : 4
Format : UTF-8
Codec ID : S_TEXT/UTF8
Codec ID/Info : UTF-8 Plain Text
Language : English


Внимание! AdBlock блокирует показ скриншотов, все вопросы к разработчикам )))
Трекер:  [ 21-Ноя-2010 22:52 ]

  

Скачать .torrent

Размер .torrent файла 22 KB


Размер: 4.29 GB
Хэш (hash) релиза: 899e15d0701bd73fb9e06330da25d5223cd28ccd
Подписка на обновления:

Еще никто не оставлял запись к записи скачать торрент Месть придурков Месть полудурков . Будь первым!

!Обратная связь