Скачать через торрент Месть за мной Моя месть Фильм бесплатно в хорошем качестве torrent

Скачивайте на UnionPeer.org фильмы через торрент без регистрации. Новинки кино в хорошем качестве через торрент. На UnionPeer.org можно скачать через торрент фильмы 2014 и 2015 годов. Самые новые фильмы.

Скачать торрент Месть за мной Моя месть бесплатно через .torrent фильм мультфильм сериал

Статистика раздачи
Размер:  32.65 GB   |    Зарегистрирован:  12 лет   |    .torrent скачан:  42 раза   |   
Раздают:  1  
   
 
Автор Сообщение

Galfimbul

avatar Galfimbul


Месть за мной / Моя месть / Vengeance Is Mine / Fukushu suru wa ware ni ari

Год выпуска: 1979
Страна: Япония
Жанр: драма
Продолжительность: 2:20:30
Перевод: Авторский (одноголосый) Юрий Сербин
Субтитры: русские, английские

Режиссер: Сёхэй Имамура / Shohei Imamura

В ролях: Кен Огата, Рэнтаро Микуни, Чочо Мияко, Мицуко Байсё, Маюми Огава, Нидзико Киёкава, Тайдзи Тонояма, Горо Таруми, Моеко Езава, Казуко Ширакава

Описание: Семьдесят восемь дней смертельного веселья безжалостного человека - история о воре, убийце, мошеннике и очаровательном сердцееде - Ивао Энокидзу находящегося в бегах. Сёхей Имамура преобразовал и экранизировал, основанный на исторических фактах, холодный, извращённый, и, время от времени, дьявольски забавный рассказ о похождениях циничного Ивао. Грамотно выстроенные флэшбэки, ответвление повествования от основной линии картины на рассказ об окружении героя, позволяют смотрящему сделать скрупулезный анализ формирования и развития первобытной ярости и ненависти сидящей в каждом из людей. "Моя месть" - одна из лучших работ японского гения, драматический триллер истинного преступления расширяющегося в уме и пугающее портретом непримиримого зла.

Доп. информация: РЕЛИЗ ГРУППЫ

Качество: BDRemux
Формат: MKV
Видео: MPEG-4 AVC Video 29999 kbps 1080p / 23.976 fps / 16:9 / High Profile 4.1
Аудио: Dolby Digital Audio Russian 2.0 / 48 kHz / 192 kbps
Аудио: DTS-HD Master Audio Japanese 2.0 / 48 kHz / 1569 kbps / 16-bit (DTS Core: 2.0 / 48 kHz / 1509 kbps / 16-bit)
Аудио: DTS-HD Master Audio English 2.0 / 48 kHz / 1562 kbps / 16-bit (DTS Core: 2.0 / 48 kHz / 1509 kbps / 16-bit)
General
Unique ID : 193997142339788950489272934283500661942 (0x91F27D951033864AA4008EC816D92CB6)
Complete name : G:\bluray\Vengeance.Is.Mine.1979.1080p.Bluray.AVC.Remux.mkv
Format : Matroska
Format version : Version 2
File size : 32.6 GiB
Duration : 2h 20mn
Overall bit rate : 33.3 Mbps
Movie name : Vengeance.Is.Mine.1979.1080p.Bluray.AVC.Remux
Encoded date : UTC 2011-08-30 20:23:01
Writing application : mkvmerge v4.9.1 ('Ich will') сборка от Jul 11 2011 23:53:15
Writing library : libebml v1.2.1 + libmatroska v1.1.1

Video
ID : 1
Format : AVC
Format/Info : Advanced Video Codec
Format profile : [email protected]
Format settings, CABAC : Yes
Format settings, ReFrames : 4 frames
Codec ID : V_MPEG4/ISO/AVC
Duration : 2h 20mn
Bit rate mode : Constant
Bit rate : 30.0 Mbps
Width : 1 920 pixels
Height : 1 080 pixels
Display aspect ratio : 16:9
Frame rate : 23.976 fps
Standard : NTSC
Color space : YUV
Chroma subsampling : 4:2:0
Bit depth : 8 bits
Scan type : Progressive
Bits/(Pixel*Frame) : 0.603
Stream size : 28.8 GiB (88%)
Title : uralmix
Color primaries : BT.709-5, BT.1361, IEC 61966-2-4, SMPTE RP177
Transfer characteristics : BT.709-5, BT.1361
Matrix coefficients : BT.709-5, BT.1361, IEC 61966-2-4 709, SMPTE RP177

Audio #1
ID : 2
Format : AC-3
Format/Info : Audio Coding 3
Mode extension : CM (complete main)
Codec ID : A_AC3
Duration : 2h 20mn
Bit rate mode : Constant
Bit rate : 192 Kbps
Channel(s) : 2 channels
Channel positions : Front: L R
Sampling rate : 48.0 KHz
Bit depth : 16 bits
Compression mode : Lossy
Stream size : 193 MiB (1%)
Title : авторский - Юрий Сербин
Language : Russian

Audio #2
ID : 3
Format : DTS
Format/Info : Digital Theater Systems
Format profile : MA / Core
Codec ID : A_DTS
Duration : 2h 20mn
Bit rate mode : Variable
Bit rate : 1 558 Kbps / 1 510 Kbps
Channel(s) : 2 channels
Channel positions : Front: L R
Sampling rate : 48.0 KHz
Bit depth : 16 bits
Compression mode : Lossless / Lossy
Language : Japanese

Audio #3
ID : 4
Format : DTS
Format/Info : Digital Theater Systems
Format profile : MA / Core
Codec ID : A_DTS
Duration : 2h 20mn
Bit rate mode : Variable
Bit rate : 1 558 Kbps / 1 510 Kbps
Channel(s) : 2 channels
Channel positions : Front: L R
Sampling rate : 48.0 KHz
Bit depth : 16 bits
Compression mode : Lossless / Lossy
Language : English

Text #1
ID : 5
Format : UTF-8
Codec ID : S_TEXT/UTF8
Codec ID/Info : UTF-8 Plain Text
Language : Russian

Text #2
ID : 6
Format : UTF-8
Codec ID : S_TEXT/UTF8
Codec ID/Info : UTF-8 Plain Text
Language : English

Menu
00:00:00.000 : en:00:00:00.000
00:17:13.282 : en:00:17:13.282
00:33:13.283 : en:00:33:13.283
00:48:19.897 : en:00:48:19.897
01:01:10.083 : en:01:01:10.083
01:19:57.960 : en:01:19:57.960
01:29:37.664 : en:01:29:37.664
01:42:42.073 : en:01:42:42.073
01:48:48.272 : en:01:48:48.272
01:56:31.651 : en:01:56:31.651
02:02:35.807 : en:02:02:35.807
02:09:45.945 : en:02:09:45.945


Внимание! AdBlock блокирует показ скриншотов, все вопросы к разработчикам )))
Трекер:  [ 03-Сен-2011 18:16 ]

  

Скачать .torrent

Размер .torrent файла 163 KB


Размер: 32.65 GB
Хэш (hash) релиза: 4d10d6bf6d596761f97cdc498fcf4bf673050c28
Подписка на обновления:

Еще никто не оставлял запись к записи скачать торрент Месть за мной Моя месть . Будь первым!

!Обратная связь