Скачать через торрент Легион Legion Фильм бесплатно в хорошем качестве torrent

Скачивайте на UnionPeer.org фильмы через торрент без регистрации. Новинки кино в хорошем качестве через торрент. На UnionPeer.org можно скачать через торрент фильмы 2014 и 2015 годов. Самые новые фильмы.

Скачать торрент Легион Legion бесплатно через .torrent фильм мультфильм сериал

Статистика раздачи
Размер:  6.91 GB   |    Зарегистрирован:  7 лет   |    .torrent скачан:  60 раз   |   
Раздают:  1  
   
 
Автор Сообщение

Galfimbul

avatar Galfimbul


Легион | Legion
<var class="postImg postImgAligned img-right" title="https://i91.fastpic.ru/big/2017/0221/a7/239eeab3e14...a7.png">
</var>Год выпуска: 2017
Страна: США
Жанр: Фантастика, боевик, драма
Продолжительность: ~ 00:59:00
Перевод: Профессиональный (многоголосый закадровый) | Jaskier
Режиссёр: Майкл Аппендаль, Ной Хоули, Дэнни Гордон
В ролях: Дэн Стивенс, МакКензи Грэй, Скотт Лоуренс, Кэтрин Аселтон, Джереми Харрис, Билл Ирвин, Рэйчел Келлер, Эмбер Мидфандер, Обри Плаза, Люк Росслер и др.
Описание: В центре сюжета проекта оказывается молодой человек по имени Дэвид Хеллер. Он страдает от различных расстройств психики, которые нередко мешают ему в повседневной жизни. Парень еще достаточно молод, но уже чувствует, что жизнь переворачивается на его глазах. Множественности личностей не дает главному герою спокойно заниматься повседневными делами. Бедный Дэвид пытается всячески вернуться к здравомыслию, однако ему очень тяжело. Дэвид уже решил сдаться и опускает руки, но всё меняется, когда он встречает девушку своей мечты. Кажется, все еще может измениться...

| |
Качество: WEB-DL 1080p
Формат: MKV
Видео: 1920x1080 (16:9) | X264/MPEG4-AVC | ~5000 kbps | 23.976 fps
Аудио 1: AC3 | 48 KHz | 5.1 (Front: L С R Side: L R) + LFE | ~384 kbps [RUS]
Аудио 2: AC3 | 48 KHz | 5.1 (Front: L С R Side: L R) + LFE | ~384 kbps [ENG]
Субтитры: английские
Реклама: Присутствует звуковая (два раза в начале и конце по 12 сек.)
Переведено и озвучено: студией Jaskier
Общее
Уникальный идентификатор                 : 184474058771313627288875363285480170154 (0x8AC8694FDFC66F1EA18DA110D3D6E2AA)
Полное имя                               : D:\загрузки\Legion (Season 01) Jaskier 1080\Legion.S01E01.1080p.WEB-DL.Rus.Eng.Jaskier.mkv
Формат                                   : Matroska
Версия формата                           : Version 2
Размер файла                             : 2,91 Гбайт
Продолжительность                        : 1 ч. 10 м.
Общий поток                              : 5939 Кбит/сек
Дата кодирования                         : UTC 2017-02-21 22:14:06
Программа кодирования                    : mkvmerge v7.8.0 ('River Man') 32bit built on Apr  3 2015 12:11:22
Библиотека кодирования                   : libebml v1.3.1 + libmatroska v1.4.2

Видео
Идентификатор                            : 1
Формат                                   : AVC
Формат/Информация                        : Advanced Video Codec
Профиль формата                          : High@L4
Параметр CABAC формата                   : Да
Параметр ReFrames формата                : 4 кадра
Идентификатор кодека                     : V_MPEG4/ISO/AVC
Продолжительность                        : 1 ч. 10 м.
Битрейт                                  : 5053 Кбит/сек
Ширина                                   : 1920 пикселей
Высота                                   : 1080 пикселей
Соотношение сторон                       : 16:9
Режим частоты кадров                     : Постоянный
Частота кадров                           : 23,976 (24000/1001) кадра/сек
Цветовое пространство                    : YUV
Субдискретизация насыщенности            : 4:2:0
Битовая глубина                          : 8 бит
Тип развёртки                            : Прогрессивная
Бит/(Пиксели*Кадры)                      : 0.102
Размер потока                            : 2,48 Гбайт (85%)
Язык                                     : English
Default                                  : Да
Forced                                   : Нет
Цветовой диапазон                        : Limited
Основные цвета                           : BT.709
Характеристики трансфера                 : BT.709
Коэффициенты матрицы                     : BT.709

Аудио #1
Идентификатор                            : 2
Формат                                   : AC-3
Формат/Информация                        : Audio Coding 3
Расширение режима                        : CM (complete main)
Параметр Endianness формата              : Big
Идентификатор кодека                     : A_AC3
Продолжительность                        : 1 ч. 10 м.
Вид битрейта                             : Постоянный
Битрейт                                  : 384 Кбит/сек
Каналы                                   : 6 каналов
Расположение каналов                     : Front: L C R, Side: L R, LFE
Частота                                  : 48,0 КГц
Частота кадров                           : 31,250 кадров/сек (1536 spf)
Битовая глубина                          : 16 бит
Метод сжатия                             : С потерями
Размер потока                            : 193 Мбайт (6%)
Заголовок                                : Jaskier
Язык                                     : Russian
Default                                  : Да
Forced                                   : Нет

Аудио #2
Идентификатор                            : 3
Формат                                   : AC-3
Формат/Информация                        : Audio Coding 3
Расширение режима                        : CM (complete main)
Параметр Endianness формата              : Big
Идентификатор кодека                     : A_AC3
Продолжительность                        : 1 ч. 10 м.
Вид битрейта                             : Постоянный
Битрейт                                  : 384 Кбит/сек
Каналы                                   : 6 каналов
Расположение каналов                     : Front: L C R, Side: L R, LFE
Частота                                  : 48,0 КГц
Частота кадров                           : 31,250 кадров/сек (1536 spf)
Битовая глубина                          : 16 бит
Метод сжатия                             : С потерями
Размер потока                            : 193 Мбайт (6%)
Язык                                     : English
Default                                  : Нет
Forced                                   : Нет

Текст #1
Идентификатор                            : 4
Формат                                   : UTF-8
Идентификатор кодека                     : S_TEXT/UTF8
Идентификатор кодека/Информация          : UTF-8 Plain Text
Язык                                     : English
Default                                  : Нет
Forced                                   : Нет

Текст #2
Идентификатор                            : 5
Формат                                   : UTF-8
Идентификатор кодека                     : S_TEXT/UTF8
Идентификатор кодека/Информация          : UTF-8 Plain Text
Заголовок                                : SDH
Язык                                     : English
Default                                  : Нет
Forced                                   : Нет
Когда раздача ведётся путём добавления новых серий, при каждом добавлении создётся новый торрент. Чтобы начать докачку новой серии, пользователям необходимо сделать следующее:
(1) остановить скачивание,
(2) удалить старый торрент у себя из клиента (старые серии удалять не надо),
(3) скачать новый торрент и запустить его у себя в клиенте вместо старого, при этом указать клиенту путь в старую папку, куда и должно происходить скачивание новых серий.
Ваш клиент при этом должен произвести хеширование (проверку) старой папки (если не производит сам - помогите ему сделать это), и будет докачивать только те серии, которых у вас ещё нет. Старые серии при этом не удаляются, а продолжают раздаваться!
Eсли вы уже удалили старые серии, то предотвратить повторную закачку старых серий можно, отжав галочку в соответсвующих местах при запуске нового торрента. По возможности, желательно не удалять старые серии как можно дольше, чтобы релизёр не столько продолжал раздавать старые серии, а смог сконцентрироваться на новых.



Внимание! AdBlock блокирует показ скриншотов, все вопросы к разработчикам )))
Трекер:  [ 27-Фев-2017 12:30 ]

  

Скачать .torrent

Размер .torrent файла 35 KB


Размер: 6.91 GB
Хэш (hash) релиза: b35489a1b6e848e01f185d5cb2a3f3c3ded35c9f
Подписка на обновления:

Торренты, похожие на Легион Legion скачать торрент

Форум Название Автор Размер S L Добавлен
Зарубежные сериалы ·· Легион / Legion / Сезон: 3 / Серии: 1-8 из 8 (Тим Милантс, Майкл Аппендаль, Джон Камерон) [2019, фантастика, боевик, триллер, драма, WEB-DL 1080p] MVO (FOX) + Original + Sub (2xRus, Eng) Galfimbul 2723885451625.37 GB 0 0 1582096710

10:18

19-Фев-20

Еще никто не оставлял запись к записи скачать торрент Легион Legion . Будь первым!

!Обратная связь