torrent

UnionPeer.org . . UnionPeer.org 2014 2015 . .

.torrent

9.66 GB   |    :  7 1    |    .torrent :  27    |   
1  
   
 

Galfimbul

avatar Galfimbul




Zakurozaka no adauchi
Snow on the Blades
<span class="post-font-sans1"></span>: <span class="post-font-sans1">, </span>
<span class="post-font-sans1"></span>: <span class="post-font-sans1">, , </span>
<span class="post-font-sans1"> </span>: <span class="post-font-mono1">2014</span>
<span class="post-font-sans1"></span>: <span class="post-font-mono1">02:00:14</span>

<span class="post-font-sans1"></span>: <span class="post-font-sans1"></span>
<span class="post-font-sans1">C</span>: <span class="post-font-sans1"> (meykasahara), </span>
<span class="post-font-sans1"> </span>: <span class="post-font-sans1"></span>

<span class="post-font-sans1"></span>: <span class="post-font-sans1"> / Setsuro Wakamatsu</span>
<span class="post-font-sans1"> </span>: <span class="post-font-sans1"> , , , , , , , Yôichirô Ohmi, , </span>

<span class="post-font-sans1"></span>: <span class="post-font-sans1">
1860 , , - . , . , .
, , . ?..
:
<span class="post-font-sans1"> </span>: <span class="post-font-sans1">BDRip 1080p (<span class="post-font-sans1"> HDS)</span></span></span>
<span class="post-font-sans1"></span>: <span class="post-font-sans1">MKV</span>

<span class="post-font-sans1"></span>: <span class="post-font-mono1">AVC (x264), 1920x1036 (1.85:1) at 23,976 fps, 10000 bps, 0.210 bpp</span>
<span class="post-font-sans1"> 1</span>: <span class="post-font-mono1">DTS; 1536 Kbps; CBR; 6 ch; 48 khz</span> <span class="post-font-sans1">| |</span>
<span class="post-font-sans1"> </span>: <span class="post-font-sans1">softsub (SRT);</span>
General
Unique ID : 188852256904157262149421469010005665682 (0x8E139F2559E28DD1901DC6FE232D2792)
Complete name : .2014.RUSSUB.1080p.BluRay.x264-HDS.mkv
Format : Matroska
Format version : Version 4 / Version 2
File size : 9.66 GiB
Duration : 2h 0mn
Overall bit rate : 11.5 Mbps
Movie name : Snow on the Blades [2014] [1080p] RUSSUB
Encoded date : UTC 2017-01-06 13:17:18
Writing application : mkvmerge v7.8.0 ('River Man') 32bit built on Mar 27 2015 16:18:02
Writing library : libebml v1.3.1 + libmatroska v1.4.2

Video
ID : 1
Format : AVC
Format/Info : Advanced Video Codec
Format profile : [email protected]
Format settings, CABAC : Yes
Format settings, ReFrames : 4 frames
Codec ID : V_MPEG4/ISO/AVC
Duration : 2h 0mn
Bit rate : 10 000 Kbps
Width : 1 920 pixels
Height : 1 036 pixels
Display aspect ratio : 1.85:1
Frame rate mode : Constant
Frame rate : 23.976 fps
Color space : YUV
Chroma subsampling : 4:2:0
Bit depth : 8 bits
Scan type : Progressive
Bits/(Pixel*Frame) : 0.210
Stream size : 8.20 GiB (85%)
Title : profile.php?mode=viewprofile&u=22488948 || RG Orient Extreme Films
Writing library : x264 core 142 r2409 d6b4e63
Encoding settings : cabac=1 / ref=3 / deblock=1:-3:-3 / analyse=0x3:0x133 / me=umh / subme=9 / psy=1 / psy_rd=1.02:0.04 / mixed_ref=1 / me_range=32 / chroma_me=1 / trellis=2 / 8x8dct=1 / cqm=0 / deadzone=21,11 / fast_pskip=0 / chroma_qp_offset=-5 / threads=12 / lookahead_threads=1 / sliced_threads=0 / nr=0 / decimate=0 / interlaced=0 / bluray_compat=0 / constrained_intra=0 / bframes=5 / b_pyramid=2 / b_adapt=2 / b_bias=0 / direct=3 / weightb=1 / open_gop=0 / weightp=2 / keyint=240 / keyint_min=23 / scenecut=40 / intra_refresh=0 / rc_lookahead=60 / rc=2pass / mbtree=1 / bitrate=10000 / ratetol=1.0 / qcomp=0.70 / qpmin=0 / qpmax=69 / qpstep=4 / cplxblur=20.0 / qblur=0.5 / vbv_maxrate=45000 / vbv_bufsize=45000 / nal_hrd=none / filler=0 / ip_ratio=1.40 / aq=2:0.80
Language : Japanese
Default : Yes
Forced : No

Audio
ID : 2
Format : DTS
Format/Info : Digital Theater Systems
Mode : 16
Format settings, Endianness : Big
Codec ID : A_DTS
Duration : 2h 0mn
Bit rate mode : Constant
Bit rate : 1 510 Kbps
Channel(s) : 6 channels
Channel positions : Front: L C R, Side: L R, LFE
Sampling rate : 48.0 KHz
Bit depth : 24 bits
Compression mode : Lossy
Stream size : 1.27 GiB (13%)
Language : Japanese
Default : Yes
Forced : No

Text #1
ID : 3
Format : UTF-8
Codec ID : S_TEXT/UTF8
Codec ID/Info : UTF-8 Plain Text
Title : [meykasahara]
Language : Russian
Default : Yes
Forced : No

Text #2
ID : 4
Format : UTF-8
Codec ID : S_TEXT/UTF8
Codec ID/Info : UTF-8 Plain Text
Title : Jiro Matsuki
Language : English
Default : No
Forced : No

Menu
00:00:00.000 : en:00:00:00.000
00:12:19.322 : en:00:12:19.322
00:23:03.132 : en:00:23:03.132
00:35:11.985 : en:00:35:11.985
00:42:22.290 : en:00:42:22.290
00:49:12.449 : en:00:49:12.449
00:55:42.589 : en:00:55:42.589
01:01:38.028 : en:01:01:38.028
01:09:20.490 : en:01:09:20.490
01:23:29.463 : en:01:23:29.463
01:36:05.885 : en:01:36:05.885
01:48:40.013 : en:01:48:40.013
01:55:58.285 : en:01:55:58.285
<div class="post-box" style="border-color: #F5F5F5; background: #F5F5F5;">

<div style="margin-left: 2em" class="post-ul">x264 [info]: frame I:969 Avg QP:13.98 size:322765</div>
<div style="margin-left: 2em" class="post-ul">x264 [info]: frame P:37019 Avg QP:16.33 size:102562</div>
<div style="margin-left: 2em" class="post-ul">x264 [info]: frame B:134992 Avg QP:17.91 size: 36333</div>
<div style="margin-left: 2em" class="post-ul">x264 [info]: consecutive B-frames: 1.9% 1.9% 9.4% 8.8% 22.0% 55.9%
</div>
</div>
<div class="q-wrap">
<div class="q-head"><span><b>:</b></span></div>
<div class="q">
<div class="post-box" style="border-color: #F5F5F5; background: #F5F5F5;">

<div style="margin-left: 2em" class="post-ul"> THD DTS</div>
<div style="margin-left: 2em" class="post-ul"> <a href="viewtopic.php?t=5199687" class="postLink"></a>, thx: meykasahara</div>
</div>

</div>
</div>

! AdBlock , )))
 ·  , , FAQ-
:  [ 06--2017 20:00 ]

  

.torrent

.torrent 24 KB


: 9.66 GB
(hash) : 1f36c1d2f4174ac0bcd51802aee5e87c20b5a88f
:
··
...

. !

!