Скачать через торрент Месть тигра Месть тигрицы Фильм бесплатно в хорошем качестве torrent

Скачивайте на UnionPeer.org фильмы через торрент без регистрации. Новинки кино в хорошем качестве через торрент. На UnionPeer.org можно скачать через торрент фильмы 2014 и 2015 годов. Самые новые фильмы.

Скачать торрент Месть тигра Месть тигрицы бесплатно через .torrent фильм мультфильм сериал

Статистика раздачи
Размер:  3.77 GB   |    Зарегистрирован:  9 лет   |    .torrent скачан:  49 раз   |   
Раздают:  1  
 

Скачать Месть тигра / Месть тигрицы / Tiger's Revenge (Налла / Nalla) [2014, Документальный, HDTV 1080i] через torrent

 
 
Автор Сообщение

Galfimbul

avatar Galfimbul


Месть тигра
/ Месть тигрицы /
Tiger's Revenge

Год выпуска: 2014
Страна: США
Жанр: Документальный
Продолжительность: 00:43:58
Перевод: Студийный (одноголосый закадровый)
Доп. инфо о переводе: Олег Белов / студия "ВЕЛЕС"
Русские субтитры: нет

Режиссер: Налла / Nalla

Описание: История двух тигриц-сестёр: Сандари - могущественной, но не способной иметь потомство, и Кришны - матери троих здоровых тигрят.

Тип релиза: HDTV 1080i
Контейнер: TS
Видео кодек: H.264
Аудио кодек: MP2
Видео: MPEG4 Video (H.264), 1920x1080, 16:9, ~11300 kbps, 25 fps
Аудио RUS: MP2, 192 Кбит/с, 48 kHz, 2 ch
Аудио ENG: MP2, 192 Кбит/с, 48 kHz, 2 ch

[url=...355753] [/url]
GeneralID : 1 (0x1)Complete name : ...\Месть тигра\Tiger's Revenge (Rus, Eng, HDTV-1080i, h264, MP2) [2014].tsFormat : MPEG-TSFile size : 3.77 GiBDuration : 43mn 58sOverall bit rate mode : VariableOverall bit rate : 12.3 Mbps

VideoID : 4113 (0x1011)Menu ID : 1 (0x1)Format : AVCFormat/Info : Advanced Video CodecFormat profile : [email protected] settings, CABAC : YesFormat settings, ReFrames : 4 framesCodec ID : 27Duration : 43mn 58sBit rate : 11.3 MbpsWidth : 1 920 pixelsHeight : 1 080 pixelsDisplay aspect ratio : 16:9Frame rate : 25.000 fpsStandard : ComponentColor space : YUVChroma subsampling : 4:2:0Bit depth : 8 bitsScan type : InterlacedScan order : Top Field FirstBits/(Pixel*Frame) : 0.218Stream size : 3.46 GiB (92%)Color primaries : BT.709Transfer characteristics : BT.709Matrix coefficients : BT.709Color range : Limited

Audio #1ID : 4352 (0x1100)Menu ID : 1 (0x1)Format : MPEG AudioFormat version : Version 1Format profile : Layer 2Codec ID : 3Duration : 43mn 58sBit rate mode : ConstantBit rate : 192 KbpsChannel(s) : 2 channelsSampling rate : 48.0 KHzCompression mode : LossyDelay relative to video : -40msStream size : 60.4 MiB (2%)Language : English

Audio #2ID : 4353 (0x1101)Menu ID : 1 (0x1)Format : MPEG AudioFormat version : Version 1Format profile : Layer 2Codec ID : 3Duration : 43mn 58sBit rate mode : ConstantBit rate : 192 KbpsChannel(s) : 2 channelsSampling rate : 48.0 KHzCompression mode : LossyDelay relative to video : -40msStream size : 60.4 MiB (2%)Language : English


Внимание! AdBlock блокирует показ скриншотов, все вопросы к разработчикам )))
Трекер:  [ 23-Фев-2015 12:30 ]

  

Скачать .torrent

Размер .torrent файла 19 KB


Размер: 3.77 GB
Хэш (hash) релиза: 046db1fae54591e28dcd6d6835c9597b805532d9
Подписка на обновления:

Еще никто не оставлял запись к записи скачать торрент Месть тигра Месть тигрицы . Будь первым!

!Обратная связь