Скачать через торрент Пианино Вертикальный Фильм бесплатно в хорошем качестве torrent

Скачивайте на UnionPeer.org фильмы через торрент без регистрации. Новинки кино в хорошем качестве через торрент. На UnionPeer.org можно скачать через торрент фильмы 2014 и 2015 годов. Самые новые фильмы.

Скачать торрент Пианино Вертикальный бесплатно через .torrent фильм мультфильм сериал

Статистика раздачи
Размер:  5.44 GB   |    Зарегистрирован:  4 года 1 месяц   |    .torrent скачан:  22 раза   |   
Раздают:  1  
   
 
Автор Сообщение

Galfimbul

avatar Galfimbul


Пианино / Вертикальный / Upright

Год выпуска: 2019
Страна: Австралия
Жанр: комедия
Продолжительность: 0:30:00

Перевод: Профессиональный (многоголосый закадровый) FOX

Режиссёр: Мэттью Савилл / Matthew Saville, Тим Минчин / Tim Minchin

В ролях: Тим Минчин
Милли Олкок
Хезер Митчелл
Элла Скотт Линч
Дэниэл Лапэйн
Дэниэл Фредериксен
Кейт Бокс
Майкл МакКолл

Описание: Двое неудачников, которых случай свел в самом центре австралийской пустыни, сближаются в процессе перевозки ценного пианино из одного конца страны в другой.

Доп. информация: На вырезанные места вставлена озвучка baibako.

Сэмпл: http://multi-up.com/1255080

Качество: WEBRip 720p
Формат: mkv
Видео: AVC, 1280x720 (16:9), 25.000 fps, 3 245 Kbps (0.141 bit/pixel)
Аудио: AC-3, 48.0 KHz, 2 ch, 192 Kbps, CBR - русский
Аудио 2: AAC LC, 48.0 KHz, 2 ch - английский
Субтитры: нет

Реклама:
нет
Общее
Уникальный идентификатор : 177187216697371671429128128746955514586 (0x854D04428509F3D289873354A2C0A2DA)
Полное имя : I:\Пианино (720p). Сезон 1\Upright - S01E01 - 720p WEBRip Nemo.mkv
Формат : Matroska
Версия формата : Version 4
Размер файла : 711 Мбайт
Продолжительность : 28 м. 38 с.
Общий поток : 3469 Кбит/сек
Название фильма : Пианино. Сезон 1 / Upright. Season 1 (2019)
Дата кодирования : UTC 2020-02-15 16:44:53
Программа кодирования : mkvmerge v8.2.0 (''World of Adventure'') 64bit
Библиотека кодирования : libebml v1.3.1 + libmatroska v1.4.2

Видео
Идентификатор : 1
Формат : AVC
Формат/Информация : Advanced Video Codec
Профиль формата : [email protected]
Настройки формата : CABAC / 8 Ref Frames
Параметр CABAC формата : Да
Параметр RefFrames формата : 8 кадров
Идентификатор кодека : V_MPEG4/ISO/AVC
Продолжительность : 28 м. 38 с.
Битрейт : 3076 Кбит/сек
Номинальный битрейт : 3245 Кбит/сек
Ширина : 1280 пикселей
Высота : 720 пикселей
Соотношение сторон : 16:9
Режим частоты кадров : Постоянный
Частота кадров : 25,000 кадров/сек
Цветовое пространство : YUV
Субдискретизация насыщенности : 4:2:0
Битовая глубина : 8 бит
Тип развёртки : Прогрессивная
Бит/(Пиксели*Кадры) : 0.134
Размер потока : 630 Мбайт (89%)
Библиотека кодирования : x264 core 148 r2721 72d53ab
Настройки программы : cabac=1 / ref=8 / deblock=1:0:0 / analyse=0x3:0x133 / me=umh / subme=9 / psy=1 / psy_rd=1.00:0.00 / mixed_ref=1 / me_range=16 / chroma_me=1 / trellis=2 / 8x8dct=1 / cqm=0 / deadzone=21,11 / fast_pskip=1 / chroma_qp_offset=-2 / threads=6 / lookahead_threads=1 / sliced_threads=0 / nr=0 / decimate=1 / interlaced=0 / bluray_compat=0 / constrained_intra=0 / bframes=3 / b_pyramid=2 / b_adapt=2 / b_bias=0 / direct=3 / weightb=1 / open_gop=0 / weightp=2 / keyint=250 / keyint_min=25 / scenecut=40 / intra_refresh=0 / rc_lookahead=60 / rc=abr / mbtree=1 / bitrate=3245 / ratetol=1.0 / qcomp=0.60 / qpmin=0 / qpmax=69 / qpstep=4 / ip_ratio=1.40 / aq=1:1.00
Язык : English
Default : Да
Forced : Нет

Аудио #1
Идентификатор : 2
Формат : AC-3
Формат/Информация : Audio Coding 3
Коммерческое название : Dolby Digital
Идентификатор кодека : A_AC3
Продолжительность : 28 м. 38 с.
Вид битрейта : Постоянный
Битрейт : 192 Кбит/сек
Каналы : 2 канала
Channel layout : L R
Частота : 48,0 КГц
Частота кадров : 31,250 кадров/сек (1536 SPF)
Битовая глубина : 16 бит
Метод сжатия : С потерями
Размер потока : 39,3 Мбайт (6%)
Заголовок : Профессиональный (многоголосый, закадровый) FOX
Язык : Russian
ServiceKind/String : Complete Main
Default : Да
Forced : Нет

Аудио #2
Идентификатор : 3
Формат : AAC LC
Формат/Информация : Advanced Audio Codec Low Complexity
Идентификатор кодека : A_AAC-2
Продолжительность : 28 м. 38 с.
Битрейт : 198 Кбит/сек
Каналы : 2 канала
Channel layout : L R
Частота : 48,0 КГц
Частота кадров : 46,875 кадров/сек (1024 SPF)
Метод сжатия : С потерями
Задержка видео : 9 мс.
Размер потока : 40,6 Мбайт (6%)
Язык : English
Default : Нет
Forced : Нет


Внимание! AdBlock блокирует показ скриншотов, все вопросы к разработчикам )))

Трекер:  [ 19-Фев-2020 10:18 ]

  

Скачать .torrent

Размер .torrent файла 28 KB


Размер: 5.44 GB
Хэш (hash) релиза: 2d72531d6d2a83d904f8d0744c668de51b516d2f
Подписка на обновления:

Еще никто не оставлял запись к записи скачать торрент Пианино Вертикальный . Будь первым!

!Обратная связь