Скачать через торрент Стужа Zemheri Фильм бесплатно в хорошем качестве torrent

Скачивайте на UnionPeer.org фильмы через торрент без регистрации. Новинки кино в хорошем качестве через торрент. На UnionPeer.org можно скачать через торрент фильмы 2014 и 2015 годов. Самые новые фильмы.

Скачать торрент Стужа Zemheri бесплатно через .torrent фильм мультфильм сериал

Статистика раздачи
Размер:  5.87 GB   |    Зарегистрирован:  4 года 3 месяца   |    .torrent скачан:  5 раз   |   
Раздают:  1  
 

Скачать Стужа / Zemheri / Серии: 1-5 (13) (Хилаль Сарал / Hilal Saral) [2020, Турция, Драма, WEBRip (720p)] Rus Sub через torrent

 
 
Автор Сообщение

Galfimbul

avatar Galfimbul


Стужа / Zemheri

Год выпуска: 2020
Производство: Ay Yapım
Жанр: Драма
Продолжительность: ~ 02:37:00 каждая серия
Субтитры: Русские (DiziMania)

Режиссёр: Хилаль Сарал / Hilal Saral

В ролях: Альперен Дуймаз / Alperen Duymaz - Аяз
Айча Айшин Туран / Ayça Ayşin Turan – Фирузе
Хазал Филиз Кючюккёсе / Hazal Filiz Küçükköse - Беррак
Зеррин Текиндор / Zerrin Tekindor
Джанер Джиндорук / Caner Cindoruk
Шебнем Донмез / Şebnem Dönmez
Хакан Ташкыран / Hakan Taşkıran
Эйлюль Кандемир / Eylül Kandemir
Нихаль Колдаш / Nihal Koldaş
Мюфит Кааядджан / Müfit Kayacan
Илькин Тюфекчи / İlkin Tüfekçi
Алейна Озгечен / Aleyna Özgeçen

Описание: Новый проект от режиссера и продюсерской компании, создавших сериал "Черная любовь".
Фирузе и Аяз. Два прекрасных сердца, два ребёнка, несущие бремя двух семей. Их объединяет судьба, судьба - жертвующая. Теперь жизнь навсегда в долгу перед ними. Они хотят вернуть любовь, которую получили. Но путь не легкий. Дорога неровная. Погода морозная, временами бывает Стужа. Глаза Фирузе - голубые, сердце искреннее.
Отец Фирузе был несправедливо признан виновным в крушении лифта, в результате которого погибли тринадцать человек; эта ситуация меняет путь Фирузе, она выбирает путь честности и справедливости. По пути, в который она вошла, чтобы спасти своего отца; она встречает Аяза, который украл все её надежды. Но вскоре он прощается с ней и оставляет её полпути... Аяз, который на своих плечах несет ответственность за то, чтобы быть мужчиной дома, жертвует Фирузой ради своей матери и собирается жениться на другой... Он просыпается каждое утро, тоскуя по голубым глазам Фирузе. Аяз ещё не знает того, что сыграл большую роль в обвинении её отца. Фирузе не знает, что некоторые завершения бывают не из-за отсутствия любви, а из-за отчаяния. Знает ли Аяз, сколько раз можно пожертвовать любовью?

Качество: WEBRip (720p)
Формат: MP4
Видео кодек: H.264
Аудио кодек: AAC
Видео: MPEG4 Video (H264), 1280x720, 29.97 fps, 1254 kbps
Аудио: AAC, 44100 Hz, stereo, 127 kbps

Реклама:
Отсутствует
General
Complete name: J:\Zemheri.2020.russ.sub.WEBRip720p\Zemheri.s01.e01.2020.russ.sub.WEBRip720p.mp4
Format : MPEG-4
Format profile : Base Media
Codec ID : isom (isom/iso2/avc1/mp41)
File size : 2.18 GiB
Duration : 2 h 37 min
Overall bit rate mode : Variable
Overall bit rate : 1 386 kb/s
Writing application : Lavf58.20.100

Video
ID : 1
Format : AVC
Format/Info : Advanced Video Codec
Format profile : [email protected]
Format settings : CABAC / 2 Ref Frames
Format settings, CABAC : Yes
Format settings, ReFrames : 2 frames
Codec ID : avc1
Codec ID/Info : Advanced Video Coding
Duration : 2 h 37 min
Bit rate mode : Variable
Bit rate : 1 254 kb/s
Width : 1 280 pixels
Height : 720 pixels
Display aspect ratio : 16:9
Frame rate mode : Constant
Frame rate : 29.970 (30000/1001) FPS
Color space : YUV
Chroma subsampling : 4:2:0
Bit depth : 8 bits
Scan type : Progressive
Bits/(Pixel*Frame) : 0.065
Stream size : 1.96 GiB (90%)

Audio
ID : 2
Format : AAC
Format/Info : Advanced Audio Codec
Format profile : LC
Codec ID : mp4a-40-2
Duration : 2 h 37 min
Bit rate mode : Constant
Bit rate : 192 kb/s
Channel(s) : 2 channels
Channel positions : Front: L R
Sampling rate : 44.1 kHz
Frame rate : 43.066 FPS (1024 SPF)
Compression mode : Lossy
Stream size : 216 MiB (10%)
Default : Yes
Alternate group : 1


Внимание! AdBlock блокирует показ скриншотов, все вопросы к разработчикам )))

Трекер:  [ 19-Фев-2020 10:18 ]

  

Скачать .torrent

Размер .torrent файла 30 KB


Размер: 5.87 GB
Хэш (hash) релиза: b63b62e97569eaea0f3ffb537c570610afd372c2
Подписка на обновления:

Еще никто не оставлял запись к записи скачать торрент Стужа Zemheri . Будь первым!

!Обратная связь