Скачать через торрент Чудо-доктор Mucize Doktor Фильм бесплатно в хорошем качестве torrent

Скачивайте на UnionPeer.org фильмы через торрент без регистрации. Новинки кино в хорошем качестве через торрент. На UnionPeer.org можно скачать через торрент фильмы 2014 и 2015 годов. Самые новые фильмы.

Скачать торрент Чудо-доктор Mucize Doktor бесплатно через .torrent фильм мультфильм сериал

Статистика раздачи
Размер:  6.76 GB   |    Зарегистрирован:  4 года 3 месяца   |    .torrent скачан:  13 раз   |   
Раздают:  1  
 

Скачать Чудо-доктор / Mucize Doktor / Сезон: 1 / Серии: 17-22 (27) (Юсуф Пирхасан / Yusuf Pirhasan) [2020, Турция, Драма, WEBRip (720p)] Rus Sub через torrent

 
 
Автор Сообщение

Galfimbul

avatar Galfimbul


Чудо-доктор / Mucize Doktor

Год выпуска: 2020
Производство: MF Yapım
Жанр: Драма
Продолжительность: ~ 02:00:00 каждая серия
Субтитры: Русские

Режиссёр: Юсуф Пирхасан / Yusuf Pirhasan

В ролях: Танер Ольмез / Taner Ölmez - Доктор Али
Онур Туна / Onur Tuna – Доктор Ферман
Озге Оздер / Özge Özder – Кывылджым
Синем Унсал / Sinem Ünsal – Назлы
Реха Озджан / Reha Özcan – Доктор Адил
Мурат Айген / Murat Aygen - Танжу
Хазал Тюресан / Hazal Türesan - Белиз
Фырат Алтунмеше / Fırat Altunmeşe - Демир
Корхан Хердуран / Korhan Herduran - Гюнеш
Хаяль Кёсеоглу / Hayal Köseoğlu - Ачелья

Описание: Ремейк популярного американского и корейского сериала "Хороший доктор". Повествует он о молодом хирурге с диагнозом аутизм, который получает работу в одной из престижных клиник за свой прирожденный талант спасать жизни пациентов, и бросающий вызов скептицизму своих коллег.

Качество: WEBRip (720p)
Формат: MP4
Видео кодек: H.264
Аудио кодек: AAC
Видео: MPEG4 Video (H264) 1280x720 25fps 1794kbps
Аудио: AAC 44100Hz stereo 192kbps

Реклама:
Отсутствует
General
Complete name : J:\Doktor.2020.russ.sub.WEBRip720p\Doktor.s01.e17.2020.russ.sub.WEBRip720p.mp4
Format : MPEG-4
Format profile : Base Media
Codec ID : isom (isom/iso2/avc1/mp41)
File size : 1.67 GiB
Duration : 1 h 59 min
Overall bit rate mode : Variable
Overall bit rate : 1 993 kb/s
Writing application : Lavf58.20.100

Video
ID : 1
Format : AVC
Format/Info : Advanced Video Codec
Format profile : [email protected]
Format settings : CABAC / 4 Ref Frames
Format settings, CABAC : Yes
Format settings, ReFrames : 4 frames
Codec ID : avc1
Codec ID/Info : Advanced Video Coding
Duration : 1 h 59 min
Bit rate mode : Variable
Bit rate : 1 800 kb/s
Width : 1 280 pixels
Height : 720 pixels
Display aspect ratio : 16:9
Frame rate mode : Constant
Frame rate : 25.000 FPS
Color space : YUV
Chroma subsampling : 4:2:0
Bit depth : 8 bits
Scan type : Progressive
Bits/(Pixel*Frame) : 0.078
Stream size : 1.50 GiB (90%)

Audio
ID : 2
Format : AAC
Format/Info : Advanced Audio Codec
Format profile : LC
Codec ID : mp4a-40-2
Duration : 1 h 59 min
Duration_LastFrame : -9 ms
Bit rate mode : Constant
Bit rate : 192 kb/s
Channel(s) : 2 channels
Channel positions : Front: L R
Sampling rate : 44.1 kHz
Frame rate : 43.066 FPS (1024 SPF)
Compression mode : Lossy
Stream size : 164 MiB (10%)
Default : Yes
Alternate group : 1


Внимание! AdBlock блокирует показ скриншотов, все вопросы к разработчикам )))

Трекер:  [ 19-Фев-2020 10:18 ]

  

Скачать .torrent

Размер .torrent файла 34 KB


Размер: 6.76 GB
Хэш (hash) релиза: 14f77efa43624a0ff72409ae4f7743e4fa9702e0
Подписка на обновления:

Торренты, похожие на Чудо-доктор Mucize Doktor скачать торрент

Форум Название Автор Размер S L Добавлен
Зарубежные сериалы ·· Чудо-доктор / Mucize Doktor / Сезон: 1 / Серии: 17-22 (27) (Юсуф Пирхасан / Yusuf Pirhasan) [2020, Турция, Драма, WEBRip (1080p)] DVO Gaydarghy & Borisov Galfimbul 86618786948.07 GB 0 0 1582097080

10:24

19-Фев-20

Еще никто не оставлял запись к записи скачать торрент Чудо-доктор Mucize Doktor . Будь первым!

!Обратная связь