Скачать через торрент Столкновение Çarpışma Фильм бесплатно в хорошем качестве torrent

Скачивайте на UnionPeer.org фильмы через торрент без регистрации. Новинки кино в хорошем качестве через торрент. На UnionPeer.org можно скачать через торрент фильмы 2014 и 2015 годов. Самые новые фильмы.

Скачать торрент Столкновение Çarpışma бесплатно через .torrent фильм мультфильм сериал

Статистика раздачи
Размер:  9.15 GB   |    Зарегистрирован:  4 года 3 месяца   |    .torrent скачан:  18 раз   |   
Раздают:  1  
 

Скачать Столкновение / Çarpışma / Серии: 1-10 (??) (Улуч Байрактар / Uluç Bayraktar) [2018-2019, Турция, Драма, WEBRip (720p)] Dub Мобильное телевидение через torrent

 
 
Автор Сообщение

Galfimbul

avatar Galfimbul


Столкновение / Çarpışma

Год выпуска: 2018-2019
Страна: Турция
Производство: Ay Yapım
Жанр: Драма
Продолжительность: ~ 00:45:00 каждая серия
Перевод: Профессиональный (дублированный) (Мобильное телевидение)
Субтитры: отсутствуют

Режиссёр: Улуч Байрактар / Uluç Bayraktar

В ролях: Кыванч Татлытуг / Kıvanç Tatlıtuğ - Комиссар Махир
Эльчин Сангу / Elçin Sangu - Зейнеп
Мелиса Аслы Памук / Melisa Aslı Pamuk - Джемре
Альперен Дуймаз / Alperen Duymaz - Керем
Онур Сайлак / Onur Saylak - Вели
Севтап Озалтун / Sevtap Özaltun - Аслы
Хакан Курташ / Hakan Kurtaş - Демир
Исмаиль Демирджи / İsmail Demirci - Галип
Мерве Чагыран / Merve Çağıran - Мераль
Мустафа Угурлу / Mustafa Uğurlu - Селим
Рожда Демирер / Rojda Demirer - Бельма
Эркан Джан / Erkan Can - Хайдар

Описание: Кадир Адалы старший комиссар в стамбульском участке по борьбе с организованной преступностью. Он жил счастливо со своей семьей, но однажды во время террористической атаки теряет дочь и жену. Он чувствует свою вину в произошедшем и сильно страдает. От невыносимой боли он решает покончить с собой и неожиданно становится инициатором аварии, которая изменит всю его жизнь. В аварии сталкиваются четыре машины, четыре жизни, четыре человека… Кадир, Зейнеп, Джемре и Керем. Авария, про которую Кадир скажет: "На самом деле столкнулись не наши машины, а судьбы", свяжет жизни этих четырех людей.

Махир – комиссар полиции
Зейнеп – работает в банке, у нее проблемный брак, планирует начать новую жизнь со своей маленькой дочерью
Галип – муж Зейнеп
Джемре – адвокат Зейнеп
Керем – отсидел срок за воровство
Аслы – жена Махира
Демир – жених Джемре
Якуп – близкий друг Керема
Мераль – любовница Керема



Качество: WEBRip (720р)
Формат: MP4
Видео кодек: H.264
Аудио кодек: AAC
Видео: MPEG4, Video (H264), 1280x720, 25fps, 2558kbps
Аудио: AAC, 48000Hz, stereo 255kbps
Реклама:
Отсутствует
General
Complete name : F:\1\Stolknovenie.2018-2019.Dub.720p\Stolknovenie.s01.e01.2018.Dub.720p.mp4
Format : MPEG-4
Format profile : Base Media
Codec ID : isom (isom/iso2/avc1/mp41)
File size : 919 MiB
Duration : 45 min 33 s
Overall bit rate : 2 820 kb/s
Writing application : Lavf58.20.100

Video
ID : 1
Format : AVC
Format/Info : Advanced Video Codec
Format profile : High@L4
Format settings : CABAC / 4 Ref Frames
Format settings, CABAC : Yes
Format settings, ReFrames : 4 frames
Codec ID : avc1
Codec ID/Info : Advanced Video Coding
Duration : 45 min 33 s
Bit rate : 2 569 kb/s
Width : 1 280 pixels
Height : 720 pixels
Display aspect ratio : 16:9
Frame rate mode : Constant
Frame rate : 25.000 FPS
Color space : YUV
Chroma subsampling : 4:2:0
Bit depth : 8 bits
Scan type : Progressive
Bits/(Pixel*Frame) : 0.112
Stream size : 834 MiB (91%)
Writing library : x264 core 148
Encoding settings : cabac=1 / ref=3 / deblock=1:0:0 / analyse=0x3:0x113 / me=hex / subme=7 / psy=1 / psy_rd=1.00:0.00 / mixed_ref=1 / me_range=16 / chroma_me=1 / trellis=1 / 8x8dct=1 / cqm=0 / deadzone=21,11 / fast_pskip=1 / chroma_qp_offset=-2 / threads=22 / lookahead_threads=3 / sliced_threads=0 / nr=0 / decimate=1 / interlaced=0 / bluray_compat=0 / constrained_intra=0 / bframes=6 / b_pyramid=2 / b_adapt=1 / b_bias=0 / direct=1 / weightb=1 / open_gop=0 / weightp=2 / keyint=50 / keyint_min=26 / scenecut=0 / intra_refresh=0 / rc_lookahead=40 / rc=2pass / mbtree=1 / bitrate=2569 / ratetol=1.0 / qcomp=0.60 / qpmin=0 / qpmax=69 / qpstep=4 / cplxblur=20.0 / qblur=0.5 / vbv_maxrate=3854 / vbv_bufsize=10279 / nal_hrd=none / filler=0 / ip_ratio=1.40 / aq=1:1.00

Audio
ID : 2
Format : AAC
Format/Info : Advanced Audio Codec
Format profile : LC
Codec ID : mp4a-40-2
Duration : 45 min 33 s
Bit rate mode : Constant
Bit rate : 256 kb/s
Channel(s) : 2 channels
Channel positions : Front: L R
Sampling rate : 48.0 kHz
Frame rate : 46.875 FPS (1024 SPF)
Compression mode : Lossy
Stream size : 83.4 MiB (9%)
Language : English
Default : Yes
Alternate group : 1


Внимание! AdBlock блокирует показ скриншотов, все вопросы к разработчикам )))

Трекер:  [ 19-Фев-2020 10:18 ]

  

Скачать .torrent

Размер .torrent файла 47 KB


Размер: 9.15 GB
Хэш (hash) релиза: 48ba4d84a3e0fade8eb1b66fcb0f1e1de8791d58
Подписка на обновления:

Еще никто не оставлял запись к записи скачать торрент Столкновение Çarpışma . Будь первым!

!Обратная связь