[ATV3] La chtite famille torrent

6.94 GB   |    :  5 10    |    .torrent :  41    |   
1  
   
 

Galfimbul

avatar Galfimbul


/ La ch'tite famille
-

6.601 / 10 5.50 / 10
: 2018
:
:
: 01:46:28

: (iTunes)
:
C:
:
: ,
: ,
:
: ,
: , ,
:
: , , , , , , , , ,

: $75 139

: 13 2018
(): 31 2018,

DVD: 23 2018,
: 2 2018,

: , , .
: BDRemux (NNMClub)
: BDRip
: HD (1080p)
: M4V
: H.264, 1920x800, 2.40:1, 8 000 Kbps, 23.976 (24000/1001) fps

1: / (iTunes), AAC / 2.0 / 160 Kbps / 48.0 KHz
2: / , AAC / 2.0 / 160 Kbps / 48.0 KHz
3: / (iTunes), AC-3 / 5.1 / 384 Kbps / 48.0 KHz
4: / , AC-3 / 5.1 / 640 Kbps / 48.0 KHz
Sort Name: La ch'tite famille
XID: Apple:vendor_id:2018-1061480
contentID: 1346015217
Copyright: 2018 PATHE FILMS / LES PRODUCTIONS DU CH'TIMI / TF1 FILMS PRODUCTION
Screenwriters: ,
Producers: ,
Director:
Cast: , , , , , , , , ,
Studio: PATHE FILMS
Rating: 60
Long Description: , , .
Description: , , .
Release Date: 2018-02-28T08:00:00Z
Genre: Comedy
Artist: Dany Boon
Name: La ch'tite famille
General
Complete name : /Users/imac/HandBrake/La.Chtite.Famille.1080p.HD.m4v
Format : MPEG-4
Codec ID : M4V (M4V /M4A /mp42/isom)
File size : 6.94 GiB
Duration : 1h 46mn
Overall bit rate mode : Variable
Overall bit rate : 9 337 Kbps
Movie name : La ch'tite famille
Performer : Dany Boon
Director :
Actor : / / / / / / / / /
Screenplay by : /
Producer : /
Production studio : PATHE FILMS
Genre : Comedy
ContentType : Short Film
Description : , , .
Recorded date : UTC 2018-02-28 08:00:00
Encoded date : UTC 2018-07-07 10:28:37
Tagged date : UTC 2018-07-07 10:30:14
Copyright : 2018 PATHE FILMS / LES PRODUCTIONS DU CH'TIMI / TF1 FILMS PRODUCTION
Cover : Yes
Rating : None
Title/Sort : La ch'tite famille
LongDescription : , , .
AppleStoreCatalogID : 1346015217
Vendor : Apple:vendor_id:2018-1061480
ContentRating : fr-movie|Tout public|000|

Video #1
ID : 1
Format : AVC
Format/Info : Advanced Video Codec
Format profile : High@L4
Format settings : CABAC / 4 Ref Frames
Format settings, CABAC : Yes
Format settings, ReFrames : 4 frames
Codec ID : avc1
Codec ID/Info : Advanced Video Coding
Duration : 1h 46mn
Source duration : 1h 46mn
Bit rate : 8 000 Kbps
Width : 1 920 pixels
Height : 800 pixels
Display aspect ratio : 2.40:1
Frame rate mode : Variable
Frame rate : 23.976 (24000/1001) fps
Minimum frame rate : 23.974 fps
Maximum frame rate : 23.981 fps
Color space : YUV
Chroma subsampling : 4:2:0
Bit depth : 8 bits
Scan type : Progressive
Bits/(Pixel*Frame) : 0.217
Stream size : 5.95 GiB (86%)
Source stream size : 5.95 GiB (86%)
Title : Main Program
Writing library : x264 core 155 r2901 7d0ff22
Encoding settings : cabac=1 / ref=4 / deblock=1:-2:-2 / analyse=0x3:0x133 / me=umh / subme=10 / psy=1 / psy_rd=1.00:0.15 / mixed_ref=1 / me_range=32 / chroma_me=1 / trellis=2 / 8x8dct=1 / cqm=0 / deadzone=21,11 / fast_pskip=1 / chroma_qp_offset=-3 / threads=25 / lookahead_threads=6 / sliced_threads=0 / nr=0 / decimate=0 / interlaced=0 / bluray_compat=0 / constrained_intra=0 / bframes=16 / b_pyramid=2 / b_adapt=2 / b_bias=0 / direct=3 / weightb=1 / open_gop=0 / weightp=2 / keyint=240 / keyint_min=24 / scenecut=40 / intra_refresh=0 / rc_lookahead=40 / rc=2pass / mbtree=1 / bitrate=8000 / ratetol=1.0 / qcomp=0.70 / qpmin=0 / qpmax=69 / qpstep=4 / cplxblur=20.0 / qblur=0.5 / ip_ratio=1.40 / aq=1:1.00
Language : French
Encoded date : UTC 2018-07-07 10:28:37
Tagged date : UTC 2018-07-07 10:28:54
Color range : Limited
Color primaries : BT.709
Transfer characteristics : BT.709
Matrix coefficients : BT.709
Menus : 6,7

Video #2
ID : 7
Format : JPEG
Codec ID : jpeg
Duration : 1h 46mn
Bit rate mode : Variable
Bit rate : 643 bps
Width : 640 pixels
Height : 266 pixels
Display aspect ratio : 2.40:1
Frame rate mode : Variable
Frame rate : 0.002 fps
Minimum frame rate : 0.001 fps
Maximum frame rate : 0.004 fps
Color space : YUV
Chroma subsampling : 4:2:0
Bit depth : 8 bits
Compression mode : Lossy
Bits/(Pixel*Frame) : 1.889
Stream size : 471 KiB (0%)
Title : Chapter Images
Language : French
Default : No
Encoded date : UTC 2018-07-07 10:29:03
Tagged date : UTC 2018-07-07 10:29:04
Menu For : 1
ColorSpace_ICC : RGB

Audio #1
ID : 2
Format : AAC
Format/Info : Advanced Audio Codec
Format profile : LC
Codec ID : mp4a-40-2
Duration : 1h 46mn
Source duration : 1h 46mn
Bit rate mode : Variable
Bit rate : 154 Kbps
Maximum bit rate : 251 Kbps
Channel(s) : 2 channels
Channel positions : Front: L R
Sampling rate : 48.0 KHz
Frame rate : 46.875 fps (1024 SPF)
Compression mode : Lossy
Stream size : 117 MiB (2%)
Source stream size : 117 MiB (2%)
Title : Russian Stereo
Language : Russian
Default : Yes
Alternate group : 1
Encoded date : UTC 2018-07-07 10:28:37
Tagged date : UTC 2018-07-07 10:28:58
Fallback From : 4

Audio #2
ID : 3
Format : AAC
Format/Info : Advanced Audio Codec
Format profile : LC
Codec ID : mp4a-40-2
Duration : 1h 46mn
Source duration : 1h 46mn
Bit rate mode : Variable
Bit rate : 152 Kbps
Maximum bit rate : 257 Kbps
Channel(s) : 2 channels
Channel positions : Front: L R
Sampling rate : 48.0 KHz
Frame rate : 46.875 fps (1024 SPF)
Compression mode : Lossy
Stream size : 116 MiB (2%)
Source stream size : 116 MiB (2%)
Title : French Stereo
Language : French
Default : No
Alternate group : 1
Encoded date : UTC 2018-07-07 10:28:37
Tagged date : UTC 2018-07-07 10:28:58
Fallback From : 5

Audio #3
ID : 4
Format : AC-3
Format/Info : Audio Coding 3
Codec ID : ac-3
Duration : 1h 46mn
Bit rate mode : Constant
Bit rate : 384 Kbps
Channel(s) : 6 channels
Channel positions : Front: L C R, Side: L R, LFE
Sampling rate : 48.0 KHz
Frame rate : 31.250 fps (1536 SPF)
Bit depth : 16 bits
Compression mode : Lossy
Stream size : 292 MiB (4%)
Title : Russian DD 5.1
Language : Russian
Service kind : Complete Main
Default : Inherited From: 2
Alternate group : 1
Encoded date : UTC 2018-07-07 10:28:37
Tagged date : UTC 2018-07-07 10:28:47
Fallback To : 2

Audio #4
ID : 5
Format : AC-3
Format/Info : Audio Coding 3
Codec ID : ac-3
Duration : 1h 46mn
Bit rate mode : Constant
Bit rate : 640 Kbps
Channel(s) : 6 channels
Channel positions : Front: L C R, Side: L R, LFE
Sampling rate : 48.0 KHz
Frame rate : 31.250 fps (1536 SPF)
Bit depth : 16 bits
Compression mode : Lossy
Stream size : 487 MiB (7%)
Title : French DD 5.1
Language : French
Service kind : Complete Main
Default : No
Alternate group : 1
Encoded date : UTC 2018-07-07 10:28:37
Tagged date : UTC 2018-07-07 10:28:47
Fallback To : 3

Menu #1
00:00:00.000 : Chapter 1
00:07:37.248 : Chapter 2
00:15:11.285 : Chapter 3
00:25:04.461 : Chapter 4
00:33:17.871 : Chapter 5
00:41:44.627 : Chapter 6
00:51:26.250 : Chapter 7
01:00:48.812 : Chapter 8
01:10:42.905 : Chapter 9
01:20:07.928 : Chapter 10
01:30:17.621 : Chapter 11
01:41:55.234 : Chapter 12

Menu #2
ID : 6
Codec ID : text
Duration : 1h 46mn
Language : French
Encoded date : UTC 2018-07-07 10:28:58
Tagged date : UTC 2018-07-07 10:28:58
Menu For : 1
00:00:00.000 : Chapter 1
00:07:37.248 : Chapter 2
00:15:11.285 : Chapter 3
00:25:04.461 : Chapter 4
00:33:17.871 : Chapter 5
00:41:44.627 : Chapter 6
00:51:26.250 : Chapter 7
01:00:48.812 : Chapter 8
01:10:42.905 : Chapter 9
01:20:07.928 : Chapter 10
01:30:17.621 : Chapter 11
01:41:55.234 : Chapter 12
Bit rate mode : VBR
x264 [info]: frame I:1173 Avg QP:18.12 size:211333
x264 [info]: frame P:35968 Avg QP:21.50 size: 70079
x264 [info]: frame B:116025 Avg QP:22.39 size: 31187
x264 [info]: consecutive B-frames: 2.2% 2.8% 11.5% 29.6% 18.5% 29.8% 3.9% 1.2% 0.2% 0.1% 0.0% 0.0% 0.0% 0.0% 0.0% 0.0% 0.1%
x264 [info]: mb I I16..4: 11.6% 75.0% 13.4%
x264 [info]: mb P I16..4: 1.9% 13.6% 1.4% P16..4: 43.3% 18.5% 12.6% 0.4% 0.1% skip: 8.3%
x264 [info]: mb B I16..4: 0.2% 1.9% 0.1% B16..8: 47.8% 8.6% 2.3% direct: 6.6% skip:32.5% L0:44.1% L1:45.6% BI:10.3%
x264 [info]: 8x8 transform intra:81.8% inter:62.7%
x264 [info]: direct mvs spatial:98.8% temporal:1.2%
x264 [info]: coded y,uvDC,uvAC intra: 88.7% 84.4% 60.8% inter: 31.2% 32.2% 13.5%
x264 [info]: i16 v,h,dc,p: 21% 12% 15% 51%
x264 [info]: i8 v,h,dc,ddl,ddr,vr,hd,vl,hu: 10% 7% 9% 10% 14% 14% 13% 12% 12%
x264 [info]: i4 v,h,dc,ddl,ddr,vr,hd,vl,hu: 11% 7% 4% 10% 16% 16% 14% 12% 12%
x264 [info]: i8c dc,h,v,p: 48% 17% 18% 18%
x264 [info]: Weighted P-Frames: Y:2.1% UV:0.9%
x264 [info]: ref P L0: 52.0% 14.0% 24.9% 8.8% 0.2% 0.0%
x264 [info]: ref B L0: 84.3% 13.2% 2.6%
x264 [info]: ref B L1: 94.3% 5.7%
x264 [info]: kb/s:7998.39


Apple TV, iPad, iPhone, iPod Touch.
Windows VLC media player

! AdBlock , )))

 ·  , , FAQ-
:  [ 07--2018 14:06 ]

  

.torrent

.torrent 70 KB


: 6.94 GB
(hash) : a4eb11c71af11f9139d794e9b96088e79bd57183
··
...

[ATV3] La chtite famille . !

!