[iPad] Ready Player One torrent

2.53 GB   |    :  5 10    |    .torrent :  49    |   
1  
   
 

Galfimbul

avatar Galfimbul


/ Ready Player One


7.508 / 10 7.70 / 10
: 2018
:
: , ,
: 02:19:55

: (iTunes)
:
C: , , ,
:
: ,
: , ,
:
:
: , ,
: ,
: , , , , , , , , , -

:
: $136 975 123
: + $445 000 000 = $581 975 123
: $11 837 806

: 11 2018
(): 29 2018, -

DVD: 4 2018, Warner Bros.
Blu-Ray:

: 2045 , . OASIS . , , . , , - OASIS. . , , , , .
: WEB-DL 1080p
: WEB-DLRip
: SD (576p)
: M4V
: H.264, 1024x432, 2.40:1, 2 200 Kbps, 23.976 (24000/1001) fps

1: / (iTunes), AAC / 2.0 / 128 Kbps / 48.0 KHz
2: / , AAC / 2.0 / 128 Kbps / 48.0 KHz
3: / (iTunes), AAC / 2.0 / 128 Kbps / 44.1 KHz

1:
2:
3:
4:
Sort Name: Ready Player One
XID: Apple:vendor_id:2018-538225
contentID: 1354248992
Copyright: 2018 Warner Bros. Entertainment Inc., Village Roadshow Films North America Inc., RatPac-Dune Entertainment LLC. and Village Roadshow Films (BVI) Limited
Screenwriters: ,
Producers: , ,
Director:
Cast: , , , , , , , , , -
Studio: Warner Home Video
Rating: 4
Long Description: 2045 , . OASIS . , , . , , - OASIS. . , , , , .
Description: 2045 , . OASIS . , , . , , - OASIS.
Release Date: 2018-03-29T07:00:00Z
Genre: Action & Adventure
Artist: Steven Spielberg
Name: Ready Player One
General
Complete name : /Users/imac/HandBrake/Ready.Player.One.(SD).(pk).m4v
Format : MPEG-4
Codec ID : M4V (M4V /M4A /mp42/isom)
File size : 2.53 GiB
Duration : 2h 19mn
Overall bit rate mode : Variable
Overall bit rate : 2 586 Kbps
Movie name : Ready Player One
Performer : Steven Spielberg
Director :
Actor : / / / / / / / / / -
Screenplay by : /
Producer : / /
Production studio : Warner Home Video
Genre : Action & Adventure
ContentType : Short Film
Description : 2045 , . OASIS . , , . , , - OASIS.
Recorded date : UTC 2018-03-29 07:00:00
Encoded date : UTC 2018-07-04 11:47:25
Tagged date : UTC 2018-07-04 11:54:36
Copyright : 2018 Warner Bros. Entertainment Inc., Village Roadshow Films North America Inc., RatPac-Dune Entertainment LLC. and Village Roadshow Films (BVI) Limited
Cover : Yes
Rating : None
Title/Sort : Ready Player One
LongDescription : 2045 , . OASIS . , , . , , - OASIS. . , , , , .
AppleStoreCatalogID : 1354248992
Vendor : Apple:vendor_id:2018-538225
ContentRating : mpaa|PG-13|300|

Video #1
ID : 1
Format : AVC
Format/Info : Advanced Video Codec
Format profile : [email protected]
Format settings : CABAC / 9 Ref Frames
Format settings, CABAC : Yes
Format settings, ReFrames : 9 frames
Codec ID : avc1
Codec ID/Info : Advanced Video Coding
Duration : 2h 19mn
Source duration : 2h 19mn
Bit rate : 2 200 Kbps
Width : 1 024 pixels
Height : 432 pixels
Display aspect ratio : 2.40:1
Frame rate mode : Variable
Frame rate : 23.976 (24000/1001) fps
Minimum frame rate : 23.974 fps
Maximum frame rate : 23.981 fps
Color space : YUV
Chroma subsampling : 4:2:0
Bit depth : 8 bits
Scan type : Progressive
Bits/(Pixel*Frame) : 0.207
Stream size : 2.15 GiB (85%)
Source stream size : 2.15 GiB (85%)
Title : Main Program
Writing library : x264 core 155 r2901 7d0ff22
Encoding settings : cabac=1 / ref=9 / deblock=1:0:0 / analyse=0x3:0x113 / me=umh / subme=9 / psy=1 / psy_rd=1.00:0.00 / mixed_ref=1 / me_range=32 / chroma_me=1 / trellis=1 / 8x8dct=1 / cqm=0 / deadzone=21,11 / fast_pskip=1 / chroma_qp_offset=-2 / threads=13 / lookahead_threads=1 / sliced_threads=0 / nr=0 / decimate=1 / interlaced=0 / bluray_compat=0 / constrained_intra=0 / bframes=6 / b_pyramid=2 / b_adapt=2 / b_bias=0 / direct=1 / weightb=1 / open_gop=0 / weightp=2 / keyint=240 / keyint_min=24 / scenecut=40 / intra_refresh=0 / rc_lookahead=40 / rc=2pass / mbtree=1 / bitrate=2200 / ratetol=1.0 / qcomp=0.60 / qpmin=0 / qpmax=69 / qpstep=4 / cplxblur=20.0 / qblur=0.5 / ip_ratio=1.40 / aq=1:1.00
Language : English
Encoded date : UTC 2018-07-04 11:47:26
Tagged date : UTC 2018-07-04 11:47:34
Color range : Limited
Color primaries : BT.709
Transfer characteristics : BT.709
Matrix coefficients : BT.709
Menus : 9,10

Video #2
ID : 10
Format : JPEG
Codec ID : jpeg
Duration : 2h 19mn
Bit rate mode : Variable
Bit rate : 595 bps
Width : 640 pixels
Height : 270 pixels
Display aspect ratio : 2.40:1
Frame rate mode : Variable
Frame rate : 0.002 fps
Minimum frame rate : 0.001 fps
Maximum frame rate : 0.003 fps
Color space : YUV
Chroma subsampling : 4:2:0
Bit depth : 8 bits
Compression mode : Lossy
Bits/(Pixel*Frame) : 1.722
Stream size : 509 KiB (0%)
Title : Chapter Images
Language : English
Default : No
Encoded date : UTC 2018-07-04 11:47:44
Tagged date : UTC 2018-07-04 11:47:44
Menu For : 1
ColorSpace_ICC : RGB

Audio #1
ID : 2
Format : AAC
Format/Info : Advanced Audio Codec
Format profile : LC
Codec ID : mp4a-40-2
Duration : 2h 19mn
Source duration : 2h 19mn
Bit rate mode : Variable
Bit rate : 125 Kbps
Maximum bit rate : 188 Kbps
Channel(s) : 2 channels
Channel positions : Front: L R
Sampling rate : 48.0 KHz
Frame rate : 46.875 fps (1024 SPF)
Compression mode : Lossy
Stream size : 126 MiB (5%)
Source stream size : 126 MiB (5%)
Title : Russian Stereo
Language : Russian
Default : Yes
Alternate group : 1
Encoded date : UTC 2018-07-04 11:47:26
Tagged date : UTC 2018-07-04 11:47:40
Subtitles : 5,7

Audio #2
ID : 3
Format : AAC
Format/Info : Advanced Audio Codec
Format profile : LC
Codec ID : mp4a-40-2
Duration : 2h 19mn
Source duration : 2h 19mn
Bit rate mode : Variable
Bit rate : 125 Kbps
Maximum bit rate : 201 Kbps
Channel(s) : 2 channels
Channel positions : Front: L R
Sampling rate : 48.0 KHz
Frame rate : 46.875 fps (1024 SPF)
Compression mode : Lossy
Stream size : 125 MiB (5%)
Source stream size : 125 MiB (5%)
Title : English Stereo
Language : English
Default : No
Alternate group : 1
Encoded date : UTC 2018-07-04 11:47:26
Tagged date : UTC 2018-07-04 11:47:40

Audio #3
ID : 4
Format : AAC
Format/Info : Advanced Audio Codec
Format profile : LC
Codec ID : mp4a-40-2
Duration : 2h 19mn
Source duration : 2h 19mn
Bit rate mode : Variable
Bit rate : 126 Kbps
Maximum bit rate : 218 Kbps
Channel(s) : 2 channels
Channel positions : Front: L R
Sampling rate : 44.1 KHz
Frame rate : 43.066 fps (1024 SPF)
Compression mode : Lossy
Stream size : 126 MiB (5%)
Source stream size : 126 MiB (5%)
Title : Ukrainian Stereo
Language : Ukrainian
Default : No
Alternate group : 1
Encoded date : UTC 2018-07-04 11:47:26
Tagged date : UTC 2018-07-04 11:47:40
Subtitles : 6

Text #1
ID : 5
Format : Timed Text
Muxing mode : sbtl
Codec ID : tx3g
Duration : 2h 11mn
Bit rate mode : Variable
Bit rate : 2 bps
Stream size : 2.29 KiB (0%)
Title : Russian forced
Language : Russian
Default : Yes
Forced : Yes
Alternate group : 2
Encoded date : UTC 2018-07-04 11:47:26
Tagged date : UTC 2018-07-04 11:47:30
Subtitles For : 2
Full Alternative : 7

Text #2
ID : 6
Format : Timed Text
Muxing mode : sbtl
Codec ID : tx3g
Duration : 2h 19mn
Bit rate mode : Variable
Bit rate : 3 bps
Stream size : 3.00 KiB (0%)
Title : Ukrainian forced
Language : Ukrainian
Default : No
Forced : Yes
Alternate group : 2
Encoded date : UTC 2018-07-04 11:47:26
Tagged date : UTC 2018-07-04 11:47:30
Subtitles For : 4

Text #3
ID : 7
Format : Timed Text
Muxing mode : sbtl
Codec ID : tx3g
Duration : 2h 11mn
Bit rate mode : Variable
Bit rate : 97 bps
Stream size : 93.2 KiB (0%)
Title : Russian full
Language : Russian
Default : No
Forced : No
Alternate group : 2
Encoded date : UTC 2018-07-04 11:47:26
Tagged date : UTC 2018-07-04 11:47:30
Subtitles For : 2
Forced Alternative : 5

Text #4
ID : 8
Format : Timed Text
Muxing mode : sbtl
Codec ID : tx3g
Duration : 2h 9mn
Bit rate mode : Variable
Bit rate : 66 bps
Stream size : 62.6 KiB (0%)
Title : English full
Language : English
Default : No
Forced : No
Alternate group : 2
Encoded date : UTC 2018-07-04 11:47:26
Tagged date : UTC 2018-07-04 11:47:30

Menu #1
00:00:00.000 : 1
00:10:08.000 : 2
00:20:17.000 : 3
00:30:37.000 : 4
00:40:38.000 : 5
00:50:08.000 : 6
01:03:01.000 : 7
01:11:55.000 : 8
01:20:14.000 : 9
01:30:56.999 : 10
01:43:26.000 : 11
01:53:02.000 : 12
02:04:20.000 : 13
02:09:16.000 : 14

Menu #2
ID : 9
Codec ID : text
Duration : 2h 19mn
Language : English
Encoded date : UTC 2018-07-04 11:47:40
Tagged date : UTC 2018-07-04 11:47:40
Menu For : 1
00:00:00.000 : 1
00:10:08.000 : 2
00:20:17.000 : 3
00:30:37.000 : 4
00:40:38.000 : 5
00:50:08.000 : 6
01:03:01.000 : 7
01:11:55.000 : 8
01:20:14.000 : 9
01:30:56.999 : 10
01:43:26.000 : 11
01:53:02.000 : 12
02:04:20.000 : 13
02:09:16.000 : 14
Bit rate mode : VBR
x264 [info]: frame I:1396 Avg QP:14.84 size: 58644
x264 [info]: frame P:61048 Avg QP:18.24 size: 20388
x264 [info]: frame B:138850 Avg QP:19.78 size: 7074
x264 [info]: consecutive B-frames: 5.2% 8.7% 12.3% 59.1% 6.3% 6.6% 1.9%
x264 [info]: mb I I16..4: 10.7% 60.4% 28.8%
x264 [info]: mb P I16..4: 3.4% 17.0% 4.5% P16..4: 32.4% 21.7% 11.5% 0.0% 0.0% skip: 9.5%
x264 [info]: mb B I16..4: 0.4% 2.4% 0.9% B16..8: 37.1% 11.0% 3.3% direct: 5.4% skip:39.4% L0:39.6% L1:46.4% BI:14.0%
x264 [info]: 8x8 transform intra:67.1% inter:67.5%
x264 [info]: coded y,uvDC,uvAC intra: 79.3% 82.9% 51.9% inter: 27.5% 22.3% 3.4%
x264 [info]: i16 v,h,dc,p: 13% 17% 5% 65%
x264 [info]: i8 v,h,dc,ddl,ddr,vr,hd,vl,hu: 9% 10% 4% 9% 13% 13% 15% 12% 15%
x264 [info]: i4 v,h,dc,ddl,ddr,vr,hd,vl,hu: 9% 10% 2% 9% 14% 14% 16% 11% 15%
x264 [info]: i8c dc,h,v,p: 36% 28% 18% 18%
x264 [info]: Weighted P-Frames: Y:6.7% UV:4.2%
x264 [info]: ref P L0: 57.6% 13.5% 13.5% 4.8% 3.5% 2.5% 2.1% 1.2% 1.2% 0.2% 0.0%
x264 [info]: ref B L0: 85.1% 7.5% 3.3% 1.5% 1.1% 0.8% 0.5% 0.2%
x264 [info]: ref B L1: 97.0% 3.0%
x264 [info]: kb/s:2199.95


Apple TV, iPad, iPhone, iPod Touch.
Windows VLC media player

! AdBlock , )))

 ·  , , FAQ-
:  [ 04--2018 15:36 ]

  

.torrent

.torrent 25 KB


: 2.53 GB
(hash) : f672903b6d0151df616901a87679da1ca9f7eca5
··
...

[iPad] Ready Player One . !

!