Скачать через торрент музыку Парадокс Кловерфилда The Cloverfield Paradox бесплатно без регистрации torrent

Статистика раздачи
Размер:  501 MB   |    Зарегистрирован:  6 лет 1 месяц   |    .torrent скачан:  81 раз   |   
Раздают:  1  
 

Скачать (Soundtrack) Парадокс Кловерфилда / The Cloverfield Paradox (by Bear McCreary) - 2018, FLAC (tracks+.cue), lossless через torrent

 
 
Автор Сообщение

Galfimbul

avatar Galfimbul


Парадокс Кловерфилда |
The Cloverfield Paradox

Жанр: Soundtrack
Композитор: Bear McCreary
Год выпуска диска: 2018
Страна-производитель диска: USA
Издатель (лейбл): Sparks & Shadows
Номер по каталогу: SNS4023
Аудиокодек: FLAC (*.flac)
Тип рипа: tracks+.cue
Битрейт аудио: lossless
Продолжительность: 01:16:26
Источник: собственный рип
Наличие сканов в содержимом раздачи: да, 600 dpi, jpg
1. Overture (02:10)2. Ava and Michael (02:25)3. Converging Overload (02:17)4. Drifting in the Dark (05:35)5. In the Wall (02:30)6. Mutant Space Worms (06:44)7. Jensen (04:40)8. Molly (03:10)9. Cassiopeia (05:00)10. Airlock 6 (02:02)11. A Message for Ava (05:44)12. Magno-Putty (03:56)13. Spacewalk (06:46)14. Launch Sequence (08:46)15. A Stable Beam (07:06)16. The Cloverfield Paradox (07:35)
Exact Audio Copy V1.3 from 2. September 2016

EAC extraction logfile from 16. June 2018, 17:40

Bear McCreary / The Cloverfield Paradox

Used drive : PLEXTOR DVDR PX-L890SA Adapter: 1 ID: 0

Read mode : SecureUtilize accurate stream : YesDefeat audio cache : YesMake use of C2 pointers : No

Read offset correction : 6Overread into Lead-In and Lead-Out : NoFill up missing offset samples with silence : YesDelete leading and trailing silent blocks : NoNull samples used in CRC calculations : YesUsed interface : Native Win32 interface for Win NT & 2000Gap handling : Appended to previous track

Used output format : User Defined EncoderSelected bitrate : 1024 kBit/sQuality : HighAdd ID3 tag : NoCommand line compressor : C:\Program Files\Exact Audio Copy\Flac\flac.exeAdditional command line options : -V -8 -T "Genre=%genre%" -T "Artist=%artist%" -T "Title=%title%" -T "Album=%albumtitle%" -T "Date=%year%" -T "Tracknumber=%tracknr%" -T "Comment=%comment%" %source%

TOC of the extracted CD

Track | Start | Length | Start sector | End sector --------------------------------------------------------- 1 | 0:00.00 | 2:12.01 | 0 | 9900 2 | 2:12.01 | 2:27.12 | 9901 | 20937 3 | 4:39.13 | 2:18.64 | 20938 | 31351 4 | 6:58.02 | 5:36.58 | 31352 | 56609 5 | 12:34.60 | 2:32.14 | 56610 | 68023 6 | 15:06.74 | 6:45.71 | 68024 | 98469 7 | 21:52.70 | 4:41.54 | 98470 | 119598 8 | 26:34.49 | 3:03.04 | 119599 | 133327 9 | 29:37.53 | 5:02.05 | 133328 | 155982 10 | 34:39.58 | 2:03.63 | 155983 | 165270 11 | 36:43.46 | 5:47.65 | 165271 | 191360 12 | 42:31.36 | 3:58.35 | 191361 | 209245 13 | 46:29.71 | 6:48.54 | 209246 | 239899 14 | 53:18.50 | 8:49.10 | 239900 | 279584 15 | 62:07.60 | 7:08.33 | 279585 | 311717 16 | 69:16.18 | 7:35.56 | 311718 | 345898

Track 1

Filename F:\torrent\The Cloverfield Paradox_Bear McCreary\score\01. Bear McCreary - Overture.wav

Pre-gap length 0:00:02.00

Peak level 94.4 % Extraction speed 4.9 X Track quality 100.0 % Test CRC AD07FB6E Copy CRC AD07FB6E Accurately ripped (confidence 5) [84684365] (AR v2) Copy OK

Track 2

Filename F:\torrent\The Cloverfield Paradox_Bear McCreary\score\02. Bear McCreary - Ava and Michael.wav

Pre-gap length 0:00:01.38

Peak level 86.0 % Extraction speed 5.2 X Track quality 100.0 % Test CRC 71DFE4D1 Copy CRC 71DFE4D1 Accurately ripped (confidence 5) [20AAE612] (AR v2) Copy OK

Track 3

Filename F:\torrent\The Cloverfield Paradox_Bear McCreary\score\03. Bear McCreary - Converging Overload.wav

Pre-gap length 0:00:01.34

Peak level 94.4 % Extraction speed 5.4 X Track quality 100.0 % Test CRC 0490E48B Copy CRC 0490E48B Accurately ripped (confidence 5) [EC16BCBB] (AR v2) Copy OK

Track 4

Filename F:\torrent\The Cloverfield Paradox_Bear McCreary\score\04. Bear McCreary - Drifting in the Dark.wav

Pre-gap length 0:00:01.38

Peak level 94.4 % Extraction speed 6.7 X Track quality 100.0 % Test CRC 65CE2519 Copy CRC 65CE2519 Accurately ripped (confidence 5) [5CDCA5C8] (AR v2) Copy OK

Track 5

Filename F:\torrent\The Cloverfield Paradox_Bear McCreary\score\05. Bear McCreary - In the Wall.wav

Pre-gap length 0:00:01.38

Peak level 94.7 % Extraction speed 6.4 X Track quality 100.0 % Test CRC 39EE79A2 Copy CRC 39EE79A2 Accurately ripped (confidence 5) [1C11D62C] (AR v2) Copy OK

Track 6

Filename F:\torrent\The Cloverfield Paradox_Bear McCreary\score\06. Bear McCreary - Mutant Space Worms.wav

Pre-gap length 0:00:01.38

Peak level 94.4 % Extraction speed 7.8 X Track quality 100.0 % Test CRC C10ED4C9 Copy CRC C10ED4C9 Accurately ripped (confidence 5) [DF9903B0] (AR v2) Copy OK

Track 7

Filename F:\torrent\The Cloverfield Paradox_Bear McCreary\score\07. Bear McCreary - Jensen.wav

Pre-gap length 0:00:01.38

Peak level 94.3 % Extraction speed 8.0 X Track quality 100.0 % Test CRC 53C46C83 Copy CRC 53C46C83 Accurately ripped (confidence 5) [6C7C5C9A] (AR v2) Copy OK

Track 8

Filename F:\torrent\The Cloverfield Paradox_Bear McCreary\score\08. Bear McCreary - Molly.wav

Pre-gap length 0:00:01.38

Peak level 94.4 % Extraction speed 7.9 X Track quality 100.0 % Test CRC 8697A80A Copy CRC 8697A80A Accurately ripped (confidence 5) [4B24ED7A] (AR v2) Copy OK

Track 9

Filename F:\torrent\The Cloverfield Paradox_Bear McCreary\score\09. Bear McCreary - Cassiopeia.wav

Pre-gap length 0:00:01.38

Peak level 94.4 % Extraction speed 8.7 X Track quality 100.0 % Test CRC EBBD19CA Copy CRC EBBD19CA Accurately ripped (confidence 5) [1E4171AA] (AR v2) Copy OK

Track 10

Filename F:\torrent\The Cloverfield Paradox_Bear McCreary\score\10. Bear McCreary - Airlock 6.wav

Pre-gap length 0:00:01.38

Peak level 96.5 % Extraction speed 6.3 X Track quality 99.9 % Test CRC 1D5E2CA9 Copy CRC 1D5E2CA9 Accurately ripped (confidence 5) [7090B51F] (AR v2) Copy OK

Track 11

Filename F:\torrent\The Cloverfield Paradox_Bear McCreary\score\11. Bear McCreary - A Message for Ava.wav

Pre-gap length 0:00:01.38

Peak level 96.3 % Extraction speed 9.5 X Track quality 100.0 % Test CRC 865FC88C Copy CRC 865FC88C Accurately ripped (confidence 5) [CEC245C6] (AR v2) Copy OK

Track 12

Filename F:\torrent\The Cloverfield Paradox_Bear McCreary\score\12. Bear McCreary - Magno-Putty.wav

Pre-gap length 0:00:03.37

Peak level 94.4 % Extraction speed 9.4 X Track quality 100.0 % Test CRC F311DDD6 Copy CRC F311DDD6 Accurately ripped (confidence 5) [1940C208] (AR v2) Copy OK

Track 13

Filename F:\torrent\The Cloverfield Paradox_Bear McCreary\score\13. Bear McCreary - Spacewalk.wav

Pre-gap length 0:00:01.43

Peak level 94.3 % Extraction speed 10.3 X Track quality 100.0 % Test CRC 3CA9D877 Copy CRC 3CA9D877 Accurately ripped (confidence 5) [C11A2891] (AR v2) Copy OK

Track 14

Filename F:\torrent\The Cloverfield Paradox_Bear McCreary\score\14. Bear McCreary - Launch Sequence.wav

Pre-gap length 0:00:02.37

Peak level 94.9 % Extraction speed 11.1 X Track quality 100.0 % Test CRC 134328F1 Copy CRC 134328F1 Accurately ripped (confidence 5) [55A712AC] (AR v2) Copy OK

Track 15

Filename F:\torrent\The Cloverfield Paradox_Bear McCreary\score\15. Bear McCreary - A Stable Beam.wav

Pre-gap length 0:00:02.37

Peak level 94.4 % Extraction speed 11.5 X Track quality 100.0 % Test CRC 1729C81E Copy CRC 1729C81E Accurately ripped (confidence 5) [585A83DC] (AR v2) Copy OK

Track 16

Filename F:\torrent\The Cloverfield Paradox_Bear McCreary\score\16. Bear McCreary - The Cloverfield Paradox.wav

Pre-gap length 0:00:02.00

Peak level 97.9 % Extraction speed 11.9 X Track quality 100.0 % Test CRC 2F29F84C Copy CRC 2F29F84C Accurately ripped (confidence 5) [464D1A86] (AR v2) Copy OK

All tracks accurately ripped

No errors occurred

End of status report

---- CUETools DB Plugin V2.1.6

[CTDB TOCID: Kdmdxgyx2EJSogPy6zj1H_J7jPM-] foundSubmit result: Kdmdxgyx2EJSogPy6zj1H_J7jPM- has been confirmedTrack | CTDB Status 1 | (10/10) Accurately ripped 2 | (10/10) Accurately ripped 3 | (10/10) Accurately ripped 4 | (10/10) Accurately ripped 5 | (10/10) Accurately ripped 6 | (10/10) Accurately ripped 7 | (10/10) Accurately ripped 8 | (10/10) Accurately ripped 9 | (10/10) Accurately ripped 10 | (10/10) Accurately ripped 11 | (10/10) Accurately ripped 12 | (10/10) Accurately ripped 13 | (10/10) Accurately ripped 14 | (10/10) Accurately ripped 15 | (10/10) Accurately ripped 16 | (10/10) Accurately ripped

==== Log checksum 40FA56E238843FF2060B525C103963EABBAF2DE49CFE2C4468D2CEAACFAC3A66 ====
REM GENRE SoundtrackREM DATE 2018REM DISCID D6120310REM COMMENT "ExactAudioCopy v1.3"CATALOG 0858886004236PERFORMER "Bear McCreary"TITLE "The Cloverfield Paradox"REM COMPOSER ""FILE "01. Bear McCreary - Overture.wav" WAVE TRACK 01 AUDIO TITLE "Overture" PERFORMER "Bear McCreary" REM COMPOSER "" ISRC USGYL1823001 INDEX 01 00:00:00 TRACK 02 AUDIO TITLE "Ava and Michael" PERFORMER "Bear McCreary" REM COMPOSER "" ISRC USGYL1823002 INDEX 00 02:10:38FILE "02. Bear McCreary - Ava and Michael.wav" WAVE INDEX 01 00:00:00 TRACK 03 AUDIO TITLE "Converging Overload" PERFORMER "Bear McCreary" REM COMPOSER "" ISRC USGYL1823003 INDEX 00 02:25:53FILE "03. Bear McCreary - Converging Overload.wav" WAVE INDEX 01 00:00:00 TRACK 04 AUDIO TITLE "Drifting in the Dark" PERFORMER "Bear McCreary" REM COMPOSER "" ISRC USGYL1823004 INDEX 00 02:17:26FILE "04. Bear McCreary - Drifting in the Dark.wav" WAVE INDEX 01 00:00:00 TRACK 05 AUDIO TITLE "In the Wall" PERFORMER "Bear McCreary" REM COMPOSER "" ISRC USGYL1823005 INDEX 00 05:35:20FILE "05. Bear McCreary - In the Wall.wav" WAVE INDEX 01 00:00:00 TRACK 06 AUDIO TITLE "Mutant Space Worms" PERFORMER "Bear McCreary" REM COMPOSER "" ISRC USGYL1823006 INDEX 00 02:30:51FILE "06. Bear McCreary - Mutant Space Worms.wav" WAVE INDEX 01 00:00:00 TRACK 07 AUDIO TITLE "Jensen" PERFORMER "Bear McCreary" REM COMPOSER "" ISRC USGYL1823007 INDEX 00 06:44:33FILE "07. Bear McCreary - Jensen.wav" WAVE INDEX 01 00:00:00 TRACK 08 AUDIO TITLE "Molly" PERFORMER "Bear McCreary" REM COMPOSER "" ISRC USGYL1823008 INDEX 00 04:40:16FILE "08. Bear McCreary - Molly.wav" WAVE INDEX 01 00:00:00 TRACK 09 AUDIO TITLE "Cassiopeia" PERFORMER "Bear McCreary" REM COMPOSER "" ISRC USGYL1823009 INDEX 00 03:01:41FILE "09. Bear McCreary - Cassiopeia.wav" WAVE INDEX 01 00:00:00 TRACK 10 AUDIO TITLE "Airlock 6" PERFORMER "Bear McCreary" REM COMPOSER "" ISRC USGYL1823010 INDEX 00 05:00:42FILE "10. Bear McCreary - Airlock 6.wav" WAVE INDEX 01 00:00:00 TRACK 11 AUDIO TITLE "A Message for Ava" PERFORMER "Bear McCreary" REM COMPOSER "" ISRC USGYL1823011 INDEX 00 02:02:25FILE "11. Bear McCreary - A Message for Ava.wav" WAVE INDEX 01 00:00:00 TRACK 12 AUDIO TITLE "Magno-Putty" PERFORMER "Bear McCreary" REM COMPOSER "" ISRC USGYL1823012 INDEX 00 05:44:28FILE "12. Bear McCreary - Magno-Putty.wav" WAVE INDEX 01 00:00:00 TRACK 13 AUDIO TITLE "Spacewalk" PERFORMER "Bear McCreary" REM COMPOSER "" ISRC USGYL1823013 INDEX 00 03:56:67FILE "13. Bear McCreary - Spacewalk.wav" WAVE INDEX 01 00:00:00 TRACK 14 AUDIO TITLE "Launch Sequence" PERFORMER "Bear McCreary" REM COMPOSER "" ISRC USGYL1823014 INDEX 00 06:46:17FILE "14. Bear McCreary - Launch Sequence.wav" WAVE INDEX 01 00:00:00 TRACK 15 AUDIO TITLE "A Stable Beam" PERFORMER "Bear McCreary" REM COMPOSER "" ISRC USGYL1823015 INDEX 00 08:46:48FILE "15. Bear McCreary - A Stable Beam.wav" WAVE INDEX 01 00:00:00 TRACK 16 AUDIO TITLE "The Cloverfield Paradox" PERFORMER "Bear McCreary" REM COMPOSER "" ISRC USGYL1823016 INDEX 00 07:06:33FILE "16. Bear McCreary - The Cloverfield Paradox.wav" WAVE INDEX 01 00:00:00


Внимание! AdBlock блокирует показ скриншотов, все вопросы к разработчикам )))

Трекер:  [ 16-Июн-2018 21:36 ]

  

Скачать .torrent

Размер .torrent файла 22 KB


Размер: 501 MB
Хэш (hash) релиза: d27b5dacf2227af9a55b67c34a166e397edfc9fe

Торренты, похожие на Парадокс Кловерфилда The Cloverfield Paradox скачать торрент

Форум Название Автор Размер S L Добавлен
Саундтреки к фильмам и мультфильмам (mp3) ·· (Score) Парадокс Кловерфилда / The Cloverfield Paradox (by Bear McCreary) - 2018, MP3, 320 kbps Galfimbul 187886157179 MB 0 0 1517989407

10:43

7-Фев-18

Еще никто не оставлял запись к записи скачать торрент Парадокс Кловерфилда The Cloverfield Paradox . Будь первым!

!Обратная связь