Скачать через торрент Пожарная часть 19 Station 19 Фильм бесплатно в хорошем качестве torrent

Скачивайте на UnionPeer.org фильмы через торрент без регистрации. Новинки кино в хорошем качестве через торрент. На UnionPeer.org можно скачать через торрент фильмы 2014 и 2015 годов. Самые новые фильмы.

Скачать торрент Пожарная часть 19 Station 19 бесплатно через .torrent фильм мультфильм сериал

Статистика раздачи
Размер:  5.23 GB   |    Зарегистрирован:  4 года 6 месяцев   |    .torrent скачан:  165 раз   |   
Раздают:  1  
   
 
Автор Сообщение

Galfimbul

avatar Galfimbul


Пожарная часть 19 / Station 19
Год выпуска: 2018
Страна: США
Жанр: Боевик, триллер, драма, мелодрама
Продолжительность: ~ 00:44:00

Перевод: Профессиональный (двухголосый закадровый)[Gears Media]

Режиссёр: Пэрис Барклай, Джеймс Хэнлон, Зинга Стюарт

В ролях: Джессика Ортиз, Джейсон Уинстон Джордж, Грэй Дэймон, Барретт Досс, Альберто Фрезза, Джей Хейден, Окьерете Онаодован, Даниэль Савре, Мигель Сандовал, Калеб Александр Смит

Описание:
Сериал рассказывает о работниках пожарной станции номер девятнадцать, что располагается в городе Сиэтл. В центре внимания оказывается Энди Эррера. Главная героиня этого сериала работает в своей профессии уже давно. К тому же она обладает некоторой властью, ведь является дочерью самого начальника станции. Характер у Энди весьма сильный: девушка знает, как держать себя в руках даже в самых сложных ситуациях. С такой боевой натурой справляются далеко не все. Новичок Бэн Уоррен многого насмотрелся в своей жизни, ведь когда-то работал анастезиологом в одной из крупнейших больниц Сиэтла. Ему приходится несладко с такой суровой коллегой. Однако рано или поздно связи между персонажами наладятся. История также захватывает рассказ о личной жизни бесстрашного лейтенанта Джека Гибсона, человека, который всю свою жизнь отдал любимому делу. Помимо привычных дел и рабочих забот главные герои задумываются о личной жизни. Энди Эррера влюблена в Райана Тэннера, человека, который служит в местной полиции. Главная героиня до сих пор скрывает свои чувства, выплескивая эмоции на работе. Ей приходится сражаться со стихией, а также быть достойным товарищем для своих коллег по работе. Удается, увы, не всегда.

Сэмпл: http://multi-up.com/1192934

Качество: WEBRip
Формат: AVI
Видео: XviD, 720x400 at 23.976 fps, ~1500 kbps avg
Аудио1: Russian, MP3, 48 kHz, 2 ch, 128 kbps
Аудио2: English, MP3, 48 kHz, 2 ch, 128 kbps
Субтитры: нет
Реклама: аудио (два раза, в начале и конце, по 12 сек.)
Format : AVI
Format/Info : Audio Video Interleave
File size : 543 MiB
Duration : 43 min 2 s
Overall bit rate : 1 762 kb/s
Writing application : Lavf56.30.100

Video
ID : 0
Format : xvid
Codec ID : xvid
Duration : 43 min 2 s
Bit rate : 1 485 kb/s
Width : 720 pixels
Height : 400 pixels
Display aspect ratio : 16:9
Frame rate : 23.976 (24000/1001) FPS
Scan type : Progressive
Bits/(Pixel*Frame) : 0.215
Stream size : 457 MiB (84%)

Audio #1
ID : 1
Format : MPEG Audio
Format version : Version 1
Format profile : Layer 3
Mode : Joint stereo
Mode extension : MS Stereo
Codec ID : 55
Codec ID/Hint : MP3
Duration : 43 min 2 s
Bit rate mode : Constant
Bit rate : 128 kb/s
Channel(s) : 2 channels
Sampling rate : 48.0 kHz
Compression mode : Lossy
Stream size : 39.4 MiB (7%)
Alignment : Aligned on interleaves
Interleave, duration : 24 ms (0.58 video frame)
Interleave, preload duratio : 24 ms
Title : Gears Media

Audio #2
ID : 2
Format : MPEG Audio
Format version : Version 1
Format profile : Layer 3
Mode : Joint stereo
Mode extension : MS Stereo
Codec ID : 55
Codec ID/Hint : MP3
Duration : 43 min 2 s
Bit rate mode : Constant
Bit rate : 128 kb/s
Channel(s) : 2 channels
Sampling rate : 48.0 kHz
Compression mode : Lossy
Stream size : 39.4 MiB (7%)
Alignment : Aligned on interleaves
Interleave, duration : 24 ms (0.58 video frame)
Interleave, preload duratio : 24 ms


Внимание! AdBlock блокирует показ скриншотов, все вопросы к разработчикам )))
Трекер:  [ 28-Май-2018 01:44 ]

  

Скачать .torrent

Размер .torrent файла 53 KB


Размер: 5.23 GB
Хэш (hash) релиза: f47c48c51abc241a1df7935b1aac4cc5749979c7
Подписка на обновления:

Торренты, похожие на Пожарная часть 19 Station 19 скачать торрент

Форум Название Автор Размер S L Добавлен
Зарубежные сериалы ·· Пожарная часть 19 / Station 19 / Сезон: 1 / Серии: 1-10 из 10 (Пэрис Барклай, Джеймс Хэнлон, Зинга Стюарт) [2018, США, Боевик, триллер, драма, мелодрама, WEB-DL 1080p] DUB (Кириллица) + Original + Sub (Eng) Galfimbul 3893207544136.26 GB 0 0 1582096735

10:18

19-Фев-20

Зарубежные сериалы ·· Пожарная часть 19 / Station 19 / Сезон: 1 / Серии: 1-10 из 10 (Пэрис Барклай, Джеймс Хэнлон, Зинга Стюарт) [2018, США, Боевик, триллер, драма, мелодрама, WEBRip] MVO (NewStudio) + Original + Subs (Eng) Galfimbul 84042739117.83 GB 0 0 1529137087

11:18

16-Июн-18

Зарубежные сериалы ·· Пожарная часть 19 / Station 19 / Сезон: 1 / Серии: 1-10 из 10 (Пэрис Барклай, Джеймс Хэнлон, Зинга Стюарт) [2018, США, Боевик, триллер, драма, мелодрама, WEBRip 720p] MVO (Jaskier) + Original Galfimbul 2166849307820.18 GB 0 0 1522703923

00:18

3-Апр-18

Зарубежные сериалы ·· Пожарная часть 19 / Station 19 / Сезон: 1 / Серии: 1-10 из 10 (Пэрис Барклай, Джеймс Хэнлон, Зинга Стюарт) [2018, США, Боевик, триллер, драма, мелодрама, WEBRip] MVO (Jaskier) + Original Galfimbul 53848678405.02 GB 0 0 1522703898

00:18

3-Апр-18

Зарубежные сериалы ·· Пожарная часть 19 / Station 19 / Сезон: 1 / Серии: 1-10 из 10 (Пэрис Барклай, Джеймс Хэнлон, Зинга Стюарт) [2018, США, Боевик, триллер, драма, мелодрама, WEBRip 720p] DVO (Gears Media) + Original Galfimbul 2249439520920.95 GB 0 0 1522369099

03:18

30-Мар-18

Зарубежные сериалы ·· Пожарная часть 19 / Station 19 / Сезон: 1 / Серии: 1-9 из 10 (Пэрис Барклай) [2018, США, боевик, триллер, драма, мелодрама, WEBRip] DUB (Кириллица) + Original Galfimbul 67559813126.29 GB 0 0 1527266891

19:48

25-Май-18

bot

Раздача обновлена!
Перекачайте торрент-файл.

bot

Раздача обновлена!
Перекачайте торрент-файл.

bot

Раздача обновлена!
Перекачайте торрент-файл.

bot

Раздача обновлена!
Перекачайте торрент-файл.

bot

Раздача обновлена!
Перекачайте торрент-файл.

bot

Раздача обновлена!
Перекачайте торрент-файл.

Хотите добавить комментарий к записи скачать торрент Пожарная часть 19 Station 19

!Обратная связь